<?xml version="1.0" standalone="no"?>
<!DOCTYPE svg PUBLIC "-//W3C//DTD SVG 1.1//EN" "http://www.w3.org/Graphics/SVG/1.1/DTD/svg11.dtd" >
<svg xmlns="http://www.w3.org/2000/svg" xmlns:xlink="http://www.w3.org/1999/xlink" version="1.1">
<metadata>
Created by FontForge 20190801 at Wed Jun  9 09:31:38 2021
 By www-data
Copyright (c) 2021 by Ahmad Sidiq. All rights reserved.
</metadata>
<defs>
<font id="DenikeRegular" horiz-adv-x="534" >
  <font-face 
    font-family="DenikeRegular"
    font-weight="400"
    font-stretch="normal"
    units-per-em="1000"
    panose-1="0 0 0 0 0 0 0 0 0 0"
    ascent="800"
    descent="-200"
    x-height="500"
    cap-height="700"
    bbox="-693.127 -289.235 1331 950"
    underline-thickness="50"
    underline-position="-125"
    unicode-range="U+0020-2212"
  />
<missing-glyph horiz-adv-x="610" 
d="M500 950v-1220h-387v1220h387zM204 -186h202v40h-124l85 58h39v40h-202v-40h85l-85 -58v-40zM204 -20h202v138h-202v-138zM204 191h202v138h-122v-68h42v28h40v-58h-122v98h-40v-138zM204 356h202v122h-40v-81h-162v-41zM204 425h122v86h80v40h-202v-40h80v-45h-80v-41z
M204 584h202v41h-80v86h-122v-127zM204 743h202v40h-80v45h80v40h-201v-40h79v-45h-80v-40zM244 20v58h122v-58h-122zM244 625v44h40v-44h-40z" />
    <glyph glyph-name="T_h" unicode="Th" horiz-adv-x="1090" 
d="M214 4q24 2 41 24.5t17 55.5v606h-86q-35 0 -64 -11t-51 -31t-35 -36t-27 -38h-4l52 126h526l88 16v-267q51 67 146 67q83 0 135.5 -43t52.5 -126v-267q0 -32 15.5 -53.5t39.5 -23.5v-3h-202v3q24 2 39.5 23.5t15.5 53.5v298q0 131 -100 131q-59 0 -100.5 -39.5
t-41.5 -112.5v-277q0 -32 15.5 -53.5t39.5 -23.5v-3h-202v3q24 2 39.5 23.5t15.5 53.5v577q0 33 -35 33h-172v-606q0 -33 17 -55.5t41 -24.5v-4h-216v4z" />
    <glyph glyph-name="c_b" unicode="cb" horiz-adv-x="996" 
d="M629 177q0 -94 36.5 -140t89.5 -46q58 0 89.5 75.5t31.5 183.5q0 111 -30 185t-93 74q-51 0 -87.5 -40.5t-36.5 -116.5v-175zM25 250q0 112 66.5 189t166.5 77q77 0 131 -60t41 -119q-3 -18 -17.5 -31t-33.5 -13q-22 0 -37.5 16t-15.5 38q0 21 20.5 45t20.5 40
q0 33 -33.5 55t-75.5 22q-71 0 -104.5 -67t-33.5 -158q0 -125 51 -199.5t135 -74.5q55 0 98 30t67.5 74t40 102t20.5 105t5 92q0 51 -23 101t-46 89t-23 63q0 25 13.5 37.5t36.5 12.5q51 0 92.5 -38t41.5 -119v-113q44 70 134 70q83 0 145.5 -78.5t62.5 -187.5t-62.5 -187.5
t-145.5 -78.5q-46 0 -90.5 27t-64.5 27q-8 0 -15.5 -1.5t-14 -4.5t-11 -5.5t-9.5 -7.5l-7 -7l-7 -7l-4 -5h-3v300q-8 -59 -24 -110t-44.5 -100t-76.5 -77.5t-110 -28.5q-120 0 -188.5 75.5t-68.5 190.5zM453 666q0 -22 36.5 -85t47.5 -105v129q0 57 -10.5 80.5t-35.5 23.5
q-6 0 -13.5 -2.5t-16 -13t-8.5 -27.5z" />
    <glyph glyph-name="c_h" unicode="ch" horiz-adv-x="1048" 
d="M379 293q-22 0 -37.5 16t-15.5 38q0 21 20.5 45t20.5 40q0 33 -33.5 55t-75.5 22q-71 0 -104.5 -67t-33.5 -158q0 -125 51 -199.5t135 -74.5q55 0 98 30t67.5 74t40 102t20.5 105t5 92q0 51 -23 101t-46 89t-23 63q0 25 13.5 37.5t36.5 12.5q51 0 92.5 -38t41.5 -119
v-110q51 67 146 67q83 0 135.5 -43t52.5 -126v-267q0 -32 15.5 -53.5t39.5 -23.5v-3h-202v3q24 2 39.5 23.5t15.5 53.5v298q0 131 -100 131q-59 0 -100.5 -39.5t-41.5 -112.5v-277q0 -32 15.5 -53.5t39.5 -23.5v-3h-202v3q24 2 39.5 23.5t15.5 53.5v220q-8 -59 -24 -110
t-44.5 -100t-76.5 -77.5t-110 -28.5q-120 0 -188.5 75.5t-68.5 190.5q0 112 66.5 189t166.5 77q77 0 131 -60t41 -119q-3 -18 -17.5 -31t-33.5 -13zM453 666q0 -22 36.5 -85t47.5 -105v129q0 57 -10.5 80.5t-35.5 23.5q-6 0 -13.5 -2.5t-16 -13t-8.5 -27.5z" />
    <glyph glyph-name="c_k" unicode="ck" horiz-adv-x="974" 
d="M629 253q19 18 79 56t77 65q11 16 20 47q12 37 8 55.5t-27 20.5v3h118v-3q-24 -3 -51 -20.5t-38 -45.5q-19 -50 -24 -59q-19 -31 -93 -77q73 -1 109.5 -40t51.5 -105q5 -22 7 -30t9.5 -33t15 -37t19 -27.5t26.5 -20t33 -0.5v-2q-23 -16 -56 -16q-53 0 -87 34.5t-54 115.5
q-17 71 -37.5 109t-54.5 41q-30 -19 -51 -40v-169q0 -30 16 -50t39 -22v-3h-202v3q24 2 39.5 23.5t15.5 53.5v220q-8 -59 -24 -110t-44.5 -100t-76.5 -77.5t-110 -28.5q-120 0 -188.5 75.5t-68.5 190.5q0 112 66.5 189t166.5 77q77 0 131 -60t41 -119q-3 -18 -17.5 -31
t-33.5 -13q-22 0 -37.5 16t-15.5 38q0 21 20.5 45t20.5 40q0 33 -33.5 55t-75.5 22q-71 0 -104.5 -67t-33.5 -158q0 -125 51 -199.5t135 -74.5q55 0 98 30t67.5 74t40 102t20.5 105t5 92q0 51 -23 101t-46 89t-23 63q0 25 13.5 37.5t36.5 12.5q51 0 92.5 -38t41.5 -119v-306
zM453 666q0 -22 36.5 -85t47.5 -105v129q0 57 -10.5 80.5t-35.5 23.5q-6 0 -13.5 -2.5t-16 -13t-8.5 -27.5z" />
    <glyph glyph-name="c_m" unicode="cm" horiz-adv-x="1320" 
d="M785 3q24 2 39.5 23.5t15.5 53.5v298q0 66 -18 98.5t-64 32.5q-48 0 -88.5 -40.5t-40.5 -111.5v-277q0 -32 15.5 -53.5t39.5 -23.5v-3h-202v3q24 2 39.5 23.5t15.5 53.5v141q-21 -107 -91 -172t-164 -65q-120 0 -188.5 75.5t-68.5 190.5q0 112 66.5 189t166.5 77
q77 0 131 -60t41 -119q-3 -18 -17.5 -31t-33.5 -13q-22 0 -37.5 16t-15.5 38q0 21 20.5 45t20.5 40q0 33 -33.5 55t-75.5 22q-71 0 -104.5 -67t-33.5 -158q0 -125 51 -199.5t135 -74.5q88 0 159.5 80t71.5 211q0 30 -46 82t-46 83q0 25 13.5 37.5t36.5 12.5q38 0 73 -19.5
t51 -63.5q21 38 60.5 60.5t82.5 22.5q101 0 143 -67q60 67 160 67q77 0 123.5 -42.5t46.5 -126.5v-267q0 -32 15.5 -53.5t39.5 -23.5v-3h-202v3q24 2 39.5 23.5t15.5 53.5v298q0 66 -18 98.5t-64 32.5q-50 0 -96 -31t-41 -70q8 -29 8 -61v-267q0 -32 15.5 -53.5t39.5 -23.5
v-3h-202v3zM453 466q0 -26 38.5 -71t45.5 -60v70q0 57 -10.5 80.5t-35.5 23.5q-6 0 -13.5 -2.5t-16 -13t-8.5 -27.5z" />
    <glyph glyph-name="c_n" unicode="cn" horiz-adv-x="1048" 
d="M816 3q24 2 39.5 23.5t15.5 53.5v298q0 131 -100 131q-59 0 -100.5 -39.5t-41.5 -112.5v-277q0 -32 15.5 -53.5t39.5 -23.5v-3h-202v3q24 2 39.5 23.5t15.5 53.5v141q-21 -107 -91 -172t-164 -65q-120 0 -188.5 75.5t-68.5 190.5q0 112 66.5 189t166.5 77q77 0 131 -60
t41 -119q-3 -18 -17.5 -31t-33.5 -13q-22 0 -37.5 16t-15.5 38q0 21 20.5 45t20.5 40q0 33 -33.5 55t-75.5 22q-71 0 -104.5 -67t-33.5 -158q0 -125 51 -199.5t135 -74.5q88 0 159.5 80t71.5 211q0 30 -46 82t-46 83q0 25 13.5 37.5t36.5 12.5q38 0 73 -19.5t51 -63.5
q22 39 63.5 61t92.5 22q83 0 135.5 -43t52.5 -126v-267q0 -32 15.5 -53.5t39.5 -23.5v-3h-202v3zM453 466q0 -26 38.5 -71t45.5 -60v70q0 57 -10.5 80.5t-35.5 23.5q-6 0 -13.5 -2.5t-16 -13t-8.5 -27.5z" />
    <glyph glyph-name="c_p" unicode="cp" horiz-adv-x="996" 
d="M482 -267q24 2 39.5 23.5t15.5 53.5v411q-21 -107 -91 -172t-164 -65q-120 0 -188.5 75.5t-68.5 190.5q0 112 66.5 189t166.5 77q77 0 131 -60t41 -119q-1 -5 -5 -15q-15 -29 -46 -29q-22 0 -37.5 16t-15.5 38q0 21 20.5 45t20.5 40q0 33 -33.5 55t-75.5 22
q-71 0 -104.5 -67t-33.5 -158q0 -125 51 -199.5t135 -74.5q88 0 159.5 80t71.5 211q0 30 -46 82t-46 83q0 25 13.5 37.5t36.5 12.5q39 0 74.5 -20.5t50.5 -65.5q41 86 143 86q83 0 145.5 -78.5t62.5 -187.5t-62.5 -187.5t-145.5 -78.5q-90 0 -134 70v-244q0 -32 15.5 -53.5
t39.5 -23.5v-3h-202v3zM453 466q0 -26 38.5 -71t45.5 -60v70q0 57 -10.5 80.5t-35.5 23.5q-6 0 -13.5 -2.5t-16 -13t-8.5 -27.5zM629 148q0 -76 36.5 -116.5t87.5 -40.5q63 0 93 74t30 185t-30 185t-93 74q-51 0 -87.5 -40.5t-36.5 -116.5v-204z" />
    <glyph glyph-name="c_r" unicode="cr" horiz-adv-x="885" 
d="M282 -16q-120 0 -188.5 75.5t-68.5 190.5q0 112 66.5 189t166.5 77q77 0 131 -60t41 -119q-1 -5 -5 -15q-15 -29 -46 -29q-22 0 -37.5 16t-15.5 38q0 21 20.5 45t20.5 40q0 33 -33.5 55t-75.5 22q-71 0 -104.5 -67t-33.5 -158q0 -125 51 -199.5t135 -74.5q88 0 159.5 80
t71.5 211q0 30 -46 82t-46 83q0 25 13.5 37.5t36.5 12.5q38 0 73 -20t51 -64q43 84 127 84q74 0 111.5 -47t13.5 -98l-1 -1q-15 -29 -46 -29q-22 0 -37.5 16t-15.5 38q0 23 21.5 42t21.5 31q0 41 -72 41q-47 0 -80 -39.5t-33 -112.5v-277q0 -32 15.5 -53.5t39.5 -23.5v-3
h-202v3q24 2 39.5 23.5t15.5 53.5v141q-21 -107 -91 -172t-164 -65zM453 466q0 -26 38.5 -71t45.5 -60v70q0 57 -10.5 80.5t-35.5 23.5q-6 0 -13.5 -2.5t-16 -13t-8.5 -27.5z" />
    <glyph glyph-name="c_t" unicode="ct" horiz-adv-x="715" 
d="M431 123q-28 -64 -77.5 -101.5t-111.5 -37.5q-89 0 -153 78t-64 188q0 112 66.5 189t166.5 77q22 0 45 -6q74 -17 96 7t4 92q-11 42 20.5 74.5t82.5 32.5q58 0 85.5 -29.5t27.5 -96.5v-90h81v-15h-81v-431q0 -42 35 -55q24 -8 46 3v-2q-25 -16 -66 -16q-45 0 -76 25
t-31 83v408q0 33 -35 33v3q6 2 18 8q51 24 72.5 64t1.5 70.5t-78 30.5q-45 0 -76 -29t-20 -71q17 -56 7 -84.5t-52 -33.5q-9 -1 -9 -5q0 -1 1 -2q40 -28 60.5 -69t12.5 -78q-3 -18 -17.5 -31t-33.5 -13q-22 0 -37.5 16t-15.5 38q0 21 20.5 45t20.5 40q0 33 -33.5 55
t-75.5 22q-71 0 -104.5 -67t-33.5 -158q0 -121 48.5 -195t113.5 -74q51 0 89 36t53 72h7z" />
    <glyph glyph-name="d_i" unicode="di" horiz-adv-x="816" 
d="M367 352q0 76 -36.5 116.5t-87.5 40.5q-63 0 -93 -74t-30 -185q0 -108 31.5 -183.5t89.5 -75.5q53 0 89.5 46t36.5 140v175zM25 250q0 109 62.5 187.5t145.5 78.5q90 0 134 -70v180q0 33 -35 33v3l127 54q23 9 42 9q50 0 50 -78q0 -53 20.5 -88.5t68.5 -35.5
q30 0 52.5 16t31.5 48q-18 -26 -49 -26q-26 0 -44 18.5t-18 44.5q0 25 18.5 43t43.5 18t43 -18t18 -43q0 -51 -27 -79.5t-69 -28.5q-97 0 -97 131q0 71 -38 71q-46 0 -46 -59v-659h-3q-1 1 -4 4.5t-5 5.5l-6 6t-7.5 6.5t-9 6t-10.5 5t-12 3t-14 1.5q-20 0 -64.5 -27
t-90.5 -27q-83 0 -145.5 78.5t-62.5 187.5zM574 0v3q24 2 39.5 23.5t15.5 53.5v348q0 33 -35 33v3l127 36v-420q0 -32 15.5 -53.5t39.5 -23.5v-3h-202z" />
    <glyph glyph-name="e_a" unicode="ea" horiz-adv-x="941" 
d="M242 -16q-89 0 -153 78t-64 188q0 112 66.5 189t168.5 77q84 0 141 -54t57 -118q0 -43 -33 -66t-80.5 -29t-95 -10.5t-81.5 -19t-35 -45.5q19 -74 60 -116.5t89 -42.5q142 0 196 243q26 118 76 188t136 70t138.5 -45.5t52.5 -129.5v-285q0 -33 35 -33v-3l-127 -36v53
q-41 -53 -103 -53q-79 0 -131 42.5t-52 113.5q0 65 41.5 107.5t91.5 42.5q38 0 61 -18v-3q-53 9 -76 -30t-23 -99q0 -32 7.5 -63.5t30.5 -58.5t58 -27q47 0 71 40t24 82v238q0 85 -22.5 121.5t-84.5 36.5q-74 0 -123 -69.5t-74 -181.5q-31 -137 -86.5 -205.5t-156.5 -68.5z
M120 284q0 -51 9 -93q8 22 35 34.5t59.5 20t64.5 18.5t53.5 38.5t21.5 70.5q0 52 -28 94t-75 42q-49 0 -82 -36t-45.5 -84t-12.5 -105z" />
    <glyph glyph-name="e_b" unicode="eb" horiz-adv-x="1022" 
d="M655 177q0 -94 36.5 -140t89.5 -46q58 0 89.5 75.5t31.5 183.5q0 111 -30 185t-93 74q-51 0 -87.5 -40.5t-36.5 -116.5v-175zM25 250q0 112 66.5 189t168.5 77q84 0 141 -54t57 -118q0 -43 -33 -66t-80.5 -29t-95 -10.5t-81.5 -19t-35 -45.5q19 -74 71 -116.5t119 -42.5
q55 0 99 29.5t69.5 73t42.5 100t23 104.5t6 91q0 51 -23 101t-46 89t-23 63q0 25 13.5 37.5t36.5 12.5q50 0 92 -38.5t42 -118.5v-113q44 70 134 70q83 0 145.5 -78.5t62.5 -187.5t-62.5 -187.5t-145.5 -78.5q-46 0 -90.5 27t-64.5 27q-8 0 -15.5 -1.5t-14 -4.5t-11 -5.5
t-9.5 -7.5l-7 -7l-7 -7l-4 -5h-3v307q-7 -47 -18.5 -89t-34 -86t-52 -75.5t-75 -52t-100.5 -20.5q-108 0 -183 77.5t-75 188.5zM120 284q0 -51 9 -93q8 22 35 34.5t59.5 20t64.5 18.5t53.5 38.5t21.5 70.5q0 52 -28 94t-75 42q-49 0 -82 -36t-45.5 -84t-12.5 -105zM479 666
q0 -22 36.5 -85t47.5 -105v129q0 57 -10.5 80.5t-35.5 23.5q-6 0 -13.5 -2.5t-16 -13t-8.5 -27.5z" />
    <glyph glyph-name="e_h" unicode="eh" horiz-adv-x="1074" 
d="M842 3q24 2 39.5 23.5t15.5 53.5v298q0 131 -100 131q-59 0 -100.5 -39.5t-41.5 -112.5v-277q0 -32 15.5 -53.5t39.5 -23.5v-3h-202v3q24 2 39.5 23.5t15.5 53.5v227q-7 -47 -18.5 -89t-34 -86t-52 -75.5t-75 -52t-100.5 -20.5q-108 0 -183 77.5t-75 188.5
q0 112 66.5 189t168.5 77q84 0 141 -54t57 -118q0 -43 -33 -66t-80.5 -29t-95 -10.5t-81.5 -19t-35 -45.5q19 -74 71 -116.5t119 -42.5q55 0 99 29.5t69.5 73t42.5 100t23 104.5t6 91q0 51 -23 101t-46 89t-23 63q0 25 13.5 37.5t36.5 12.5q50 0 92 -38.5t42 -118.5v-110
q51 67 146 67q83 0 135.5 -43t52.5 -126v-267q0 -32 15.5 -53.5t39.5 -23.5v-3h-202v3zM120 284q0 -51 9 -93q8 22 35 34.5t59.5 20t64.5 18.5t53.5 38.5t21.5 70.5q0 52 -28 94t-75 42q-49 0 -82 -36t-45.5 -84t-12.5 -105zM479 666q0 -22 36.5 -85t47.5 -105v129
q0 57 -10.5 80.5t-35.5 23.5q-6 0 -13.5 -2.5t-16 -13t-8.5 -27.5z" />
    <glyph glyph-name="e_k" unicode="ek" horiz-adv-x="1000" 
d="M283 -16q-108 0 -183 77.5t-75 188.5q0 112 66.5 189t168.5 77q84 0 141 -54t57 -118q0 -43 -33 -66t-80.5 -29t-95 -10.5t-81.5 -19t-35 -45.5q19 -74 71 -116.5t119 -42.5q55 0 99 29.5t69.5 73t42.5 100t23 104.5t6 91q0 51 -23 101t-46 89t-23 63q0 25 13.5 37.5
t36.5 12.5q50 0 92 -38.5t42 -118.5v-306q19 18 79 56t77 65q11 16 20 47q12 37 8 55.5t-27 20.5v3h118v-3q-24 -3 -51 -20.5t-38 -45.5q-19 -50 -24 -59q-19 -31 -93 -77q73 -1 109.5 -40t51.5 -105q5 -22 7 -30t9.5 -33t15 -37t19 -27.5t26.5 -20t33 -0.5v-2
q-23 -16 -56 -16q-53 0 -87 34.5t-54 115.5q-17 71 -37.5 109t-54.5 41q-30 -19 -51 -40v-169q0 -30 16 -50t39 -22v-3h-202v3q24 2 39.5 23.5t15.5 53.5v227q-7 -47 -18.5 -89t-34 -86t-52 -75.5t-75 -52t-100.5 -20.5zM120 284q0 -51 9 -93q8 22 35 34.5t59.5 20
t64.5 18.5t53.5 38.5t21.5 70.5q0 52 -28 94t-75 42q-49 0 -82 -36t-45.5 -84t-12.5 -105zM479 666q0 -22 36.5 -85t47.5 -105v129q0 57 -10.5 80.5t-35.5 23.5q-6 0 -13.5 -2.5t-16 -13t-8.5 -27.5z" />
    <glyph glyph-name="e_m" unicode="em" horiz-adv-x="1346" 
d="M811 3q24 2 39.5 23.5t15.5 53.5v298q0 66 -18 98.5t-64 32.5q-48 0 -88.5 -40.5t-40.5 -111.5v-277q0 -32 15.5 -53.5t39.5 -23.5v-3h-202v3q24 2 39.5 23.5t15.5 53.5v140q-21 -108 -95 -172t-185 -64q-108 0 -183 77.5t-75 188.5q0 112 66.5 189t168.5 77
q84 0 141 -54t57 -118q0 -43 -33 -66t-80.5 -29t-95 -10.5t-81.5 -19t-35 -45.5q19 -74 71 -116.5t119 -42.5q99 0 169.5 76.5t70.5 209.5q0 30 -46 82t-46 83q0 25 13.5 37.5t36.5 12.5q38 0 73 -19.5t51 -63.5q21 38 60.5 60.5t82.5 22.5q101 0 143 -67q60 67 160 67
q77 0 123.5 -42.5t46.5 -126.5v-267q0 -32 15.5 -53.5t39.5 -23.5v-3h-202v3q24 2 39.5 23.5t15.5 53.5v298q0 66 -18 98.5t-64 32.5q-50 0 -96 -31t-41 -70q8 -29 8 -61v-267q0 -32 15.5 -53.5t39.5 -23.5v-3h-202v3zM120 284q0 -51 9 -93q8 22 35 34.5t59.5 20t64.5 18.5
t53.5 38.5t21.5 70.5q0 52 -28 94t-75 42q-49 0 -82 -36t-45.5 -84t-12.5 -105zM479 466q0 -26 38.5 -71t45.5 -60v70q0 57 -10.5 80.5t-35.5 23.5q-6 0 -13.5 -2.5t-16 -13t-8.5 -27.5z" />
    <glyph glyph-name="e_n" unicode="en" horiz-adv-x="1074" 
d="M842 3q24 2 39.5 23.5t15.5 53.5v298q0 131 -100 131q-59 0 -100.5 -39.5t-41.5 -112.5v-277q0 -32 15.5 -53.5t39.5 -23.5v-3h-202v3q24 2 39.5 23.5t15.5 53.5v140q-21 -108 -95 -172t-185 -64q-108 0 -183 77.5t-75 188.5q0 112 66.5 189t168.5 77q84 0 141 -54
t57 -118q0 -43 -33 -66t-80.5 -29t-95 -10.5t-81.5 -19t-35 -45.5q19 -74 71 -116.5t119 -42.5q99 0 169.5 76.5t70.5 209.5q0 30 -46 82t-46 83q0 25 13.5 37.5t36.5 12.5q38 0 73 -19.5t51 -63.5q22 39 63.5 61t92.5 22q83 0 135.5 -43t52.5 -126v-267q0 -32 15.5 -53.5
t39.5 -23.5v-3h-202v3zM120 284q0 -51 9 -93q8 22 35 34.5t59.5 20t64.5 18.5t53.5 38.5t21.5 70.5q0 52 -28 94t-75 42q-49 0 -82 -36t-45.5 -84t-12.5 -105zM479 466q0 -26 38.5 -71t45.5 -60v70q0 57 -10.5 80.5t-35.5 23.5q-6 0 -13.5 -2.5t-16 -13t-8.5 -27.5z" />
    <glyph glyph-name="e_p" unicode="ep" horiz-adv-x="1022" 
d="M508 -267q24 2 39.5 23.5t15.5 53.5v410q-21 -108 -95 -172t-185 -64q-108 0 -183 77.5t-75 188.5q0 112 66.5 189t168.5 77q84 0 141 -54t57 -118q0 -43 -33 -66t-80.5 -29t-95 -10.5t-81.5 -19t-35 -45.5q19 -74 71 -116.5t119 -42.5q99 0 169.5 76.5t70.5 209.5
q0 30 -46 82t-46 83q0 25 13.5 37.5t36.5 12.5q39 0 74.5 -20.5t50.5 -65.5q41 86 143 86q83 0 145.5 -78.5t62.5 -187.5t-62.5 -187.5t-145.5 -78.5q-90 0 -134 70v-244q0 -32 15.5 -53.5t39.5 -23.5v-3h-202v3zM120 284q0 -51 9 -93q8 22 35 34.5t59.5 20t64.5 18.5
t53.5 38.5t21.5 70.5q0 52 -28 94t-75 42q-49 0 -82 -36t-45.5 -84t-12.5 -105zM479 466q0 -26 38.5 -71t45.5 -60v70q0 57 -10.5 80.5t-35.5 23.5q-6 0 -13.5 -2.5t-16 -13t-8.5 -27.5zM655 148q0 -76 36.5 -116.5t87.5 -40.5q63 0 93 74t30 185t-30 185t-93 74
q-51 0 -87.5 -40.5t-36.5 -116.5v-204z" />
    <glyph glyph-name="e_r" unicode="er" horiz-adv-x="911" 
d="M283 -16q-108 0 -183 77.5t-75 188.5q0 112 66.5 189t168.5 77q84 0 141 -54t57 -118q0 -43 -33 -66t-80.5 -29t-95 -10.5t-81.5 -19t-35 -45.5q19 -74 71 -116.5t119 -42.5q99 0 169.5 76.5t70.5 209.5q0 30 -46 82t-46 83q0 25 13.5 37.5t36.5 12.5q38 0 73 -20t51 -64
q43 84 127 84q74 0 111.5 -47t13.5 -98l-1 -1q-15 -29 -46 -29q-22 0 -37.5 16t-15.5 38q0 23 21.5 42t21.5 31q0 41 -72 41q-47 0 -80 -39.5t-33 -112.5v-277q0 -32 15.5 -53.5t39.5 -23.5v-3h-202v3q24 2 39.5 23.5t15.5 53.5v140q-21 -108 -95 -172t-185 -64zM120 284
q0 -51 9 -93q8 22 35 34.5t59.5 20t64.5 18.5t53.5 38.5t21.5 70.5q0 52 -28 94t-75 42q-49 0 -82 -36t-45.5 -84t-12.5 -105zM479 466q0 -26 38.5 -71t45.5 -60v70q0 57 -10.5 80.5t-35.5 23.5q-6 0 -13.5 -2.5t-16 -13t-8.5 -27.5z" />
    <glyph glyph-name="f_b" unicode="fb" horiz-adv-x="836" 
d="M45 500h50v17q0 90 48.5 144.5t130.5 54.5q56 0 103 -39l92 39v-270q44 70 134 70q83 0 145.5 -78.5t62.5 -187.5t-62.5 -187.5t-145.5 -78.5q-46 0 -90.5 27t-64.5 27q-8 0 -15.5 -1.5t-14 -4.5t-11 -5.5t-9.5 -7.5l-7 -7l-7 -7l-4 -5h-3v613q0 35 -29.5 65.5
t-69.5 30.5q-91 0 -91 -162v-47h90v-7h-90v-413q0 -32 15.5 -53.5t39.5 -23.5v-3h-202v3q24 2 39.5 23.5t15.5 53.5v413h-50v7zM469 177q0 -94 36.5 -140t89.5 -46q58 0 89.5 75.5t31.5 183.5q0 111 -30 185t-93 74q-51 0 -87.5 -40.5t-36.5 -116.5v-175z" />
    <glyph glyph-name="f_f" unicode="ff" horiz-adv-x="696" 
d="M40 3q24 2 39.5 23.5t15.5 53.5v405h-50v15h50v17q0 89 54.5 144t138.5 55q93 0 130 -58q49 58 134 58q76 0 116 -48t14 -103q-16 -31 -47 -31q-22 0 -37.5 16t-15.5 38q0 24 21.5 42.5t21.5 30.5q0 21 -23.5 34.5t-45.5 13.5q-26 0 -43.5 -9.5t-26.5 -22t-14 -37t-6 -43
t-1 -50.5v-47h90v-15h-90v-405q0 -32 15.5 -53.5t39.5 -23.5v-3h-202v3q24 2 39.5 23.5t15.5 53.5v405h-186v-405q0 -32 15.5 -53.5t39.5 -23.5v-3h-202v3zM187 500h186v17q0 45 12 83q15 49 -14 79t-79 30q-32 0 -53.5 -12.5t-32.5 -36.5t-15 -51t-4 -62v-47z" />
    <glyph glyph-name="f_f_i" unicode="ffi" horiz-adv-x="838" 
d="M318 3q24 2 39.5 23.5t15.5 53.5v405h-186v-405q0 -32 15.5 -53.5t39.5 -23.5v-3h-202v3q24 2 39.5 23.5t15.5 53.5v405h-50v15h50v17q0 89 54.5 144t138.5 55q97 0 132 -61q52 61 141 61q84 0 138.5 -49.5t27.5 -103.5q-14 -29 -46 -29q-22 0 -37.5 16t-15.5 38t19 42.5
t13 34.5q-8 18 -35 31t-60 13q-32 0 -52.5 -12.5t-30.5 -37t-13.5 -50t-3.5 -62.5v-47h90v-15h-90v-405q0 -32 15.5 -53.5t39.5 -23.5v-3h-202v3zM187 500h186v17q0 39 14 83q16 48 -14.5 78.5t-80.5 30.5q-32 0 -53.5 -12.5t-32.5 -36.5t-15 -51t-4 -62v-47zM596 0v3
q24 2 39.5 23.5t15.5 53.5v348q0 33 -35 33v3l127 36v-420q0 -32 15.5 -53.5t39.5 -23.5v-3h-202z" />
    <glyph glyph-name="f_f_j" unicode="ffj" horiz-adv-x="818" 
d="M743 -31q0 -94 -38.5 -146.5t-118.5 -52.5q-61 0 -98 49.5t-11 101.5l1 2q14 29 46 29q22 0 37.5 -16t15.5 -38q0 -24 -22.5 -43t-24.5 -32q-3 -20 14 -33t38 -13q23 0 38 12t21 38t8 49.5t2 62.5v489q0 33 -35 33v3l127 36v-531zM40 0v3q24 2 39.5 23.5t15.5 53.5v405
h-50v15h50v17q0 89 54.5 144t138.5 55q97 0 132 -61q52 61 141 61q84 0 138.5 -49.5t27.5 -103.5q-14 -29 -46 -29q-22 0 -37.5 16t-15.5 38t19 42.5t13 34.5q-8 18 -35 31t-60 13q-32 0 -52.5 -12.5t-30.5 -37t-13.5 -50t-3.5 -62.5v-47h90v-15h-90v-405q0 -32 15.5 -53.5
t39.5 -23.5v-3h-202v3q24 2 39.5 23.5t15.5 53.5v405h-186v-405q0 -32 15.5 -53.5t39.5 -23.5v-3h-202zM187 500h186v17q0 39 14 83q16 48 -14.5 78.5t-80.5 30.5q-32 0 -53.5 -12.5t-32.5 -36.5t-15 -51t-4 -62v-47z" />
    <glyph glyph-name="f_h" unicode="fh" horiz-adv-x="888" 
d="M656 3q24 2 39.5 23.5t15.5 53.5v298q0 131 -100 131q-59 0 -100.5 -39.5t-41.5 -112.5v-277q0 -32 15.5 -53.5t39.5 -23.5v-3h-202v3q24 2 39.5 23.5t15.5 53.5v533q0 35 -29.5 65.5t-69.5 30.5q-91 0 -91 -162v-47h90v-15h-90v-405q0 -32 15.5 -53.5t39.5 -23.5v-3
h-202v3q24 2 39.5 23.5t15.5 53.5v405h-50v15h50v17q0 90 48.5 144.5t130.5 54.5q56 0 103 -39l92 39v-267q51 67 146 67q83 0 135.5 -43t52.5 -126v-267q0 -32 15.5 -53.5t39.5 -23.5v-3h-202v3z" />
    <glyph glyph-name="f_i" unicode="fi" horiz-adv-x="560" 
d="M95 517q0 89 52.5 144t135.5 55q84 0 138.5 -49.5t27.5 -103.5q-14 -29 -46 -29q-22 0 -37.5 16t-15.5 38t19 42.5t13 34.5q-8 18 -35 31t-60 13q-32 0 -52.5 -12.5t-30.5 -37t-13.5 -50t-3.5 -62.5v-47h90v-15h-90v-405q0 -32 15.5 -53.5t39.5 -23.5v-3h-202v3
q24 2 39.5 23.5t15.5 53.5v405h-50v15h50v17zM318 0v3q24 2 39.5 23.5t15.5 53.5v348q0 33 -35 33v3l127 36v-420q0 -32 15.5 -53.5t39.5 -23.5v-3h-202z" />
    <glyph glyph-name="f_j" unicode="fj" horiz-adv-x="540" 
d="M465 -31q0 -94 -38.5 -146.5t-118.5 -52.5q-61 0 -98 49.5t-11 101.5l1 2q14 29 46 29q22 0 37.5 -16t15.5 -38q0 -24 -22.5 -43t-24.5 -32q-3 -20 14 -33t38 -13q23 0 38 12t21 38t8 49.5t2 62.5v489q0 33 -35 33v3l127 36v-531zM40 0v3q24 2 39.5 23.5t15.5 53.5v405
h-50v15h50v17q0 89 52.5 144t135.5 55q84 0 138.5 -49.5t27.5 -103.5q-14 -29 -46 -29q-22 0 -37.5 16t-15.5 38t19 42.5t13 34.5q-8 18 -35 31t-60 13q-32 0 -52.5 -12.5t-30.5 -37t-13.5 -50t-3.5 -62.5v-47h90v-15h-90v-405q0 -32 15.5 -53.5t39.5 -23.5v-3h-202z" />
    <glyph glyph-name="f_k" unicode="fk" horiz-adv-x="814" 
d="M377 613q0 35 -29.5 65.5t-69.5 30.5q-91 0 -91 -162v-47h90v-15h-90v-405q0 -32 15.5 -53.5t39.5 -23.5v-3h-202v3q24 2 39.5 23.5t15.5 53.5v405h-50v15h50v17q0 90 48.5 144.5t130.5 54.5q56 0 103 -39l92 39v-463q19 18 79 56t77 65q11 16 20 47q12 37 8 55.5
t-27 20.5v3h118v-3q-24 -3 -51 -20.5t-38 -45.5q-19 -50 -24 -59q-19 -31 -93 -77q73 -1 109.5 -40t51.5 -105q5 -22 7 -30t9.5 -33t15 -37t19 -27.5t26.5 -20t33 -0.5v-2q-23 -16 -56 -16q-53 0 -87 34.5t-54 115.5q-17 71 -37.5 109t-54.5 41q-30 -19 -51 -40v-169
q0 -30 16 -50t39 -22v-3h-202v3q24 2 39.5 23.5t15.5 53.5v533z" />
    <glyph glyph-name="f_l" unicode="fl" horiz-adv-x="564" 
d="M377 613q0 35 -29.5 65.5t-69.5 30.5q-91 0 -91 -162v-47h90v-15h-90v-405q0 -32 15.5 -53.5t39.5 -23.5v-3h-202v3q24 2 39.5 23.5t15.5 53.5v405h-50v15h50v17q0 90 48.5 144.5t130.5 54.5q56 0 103 -39l92 39v-636q0 -32 15.5 -53.5t39.5 -23.5v-3h-202v3
q24 2 39.5 23.5t15.5 53.5v533z" />
    <glyph glyph-name="f_l_i" unicode="fli" horiz-adv-x="846" 
d="M604 3q24 2 39.5 23.5t15.5 53.5v348q0 33 -35 33v3l127 36v-420q0 -32 15.5 -53.5t39.5 -23.5v-3h-202v3zM40 0v3q24 2 39.5 23.5t15.5 53.5v405h-50v15h50v17q0 90 48.5 144.5t130.5 54.5q56 0 103 -39l92 39q23 9 42 9q50 0 50 -78q0 -52 27 -88t82 -36q30 0 53 16
t32 48q-19 -26 -50 -26q-26 0 -44 18.5t-18 44.5q0 25 18.5 43t43.5 18t43 -18t18 -43q0 -51 -27 -79.5t-69 -28.5q-64 0 -90.5 39.5t-26.5 91.5q0 71 -38 71q-46 0 -46 -59v-579q0 -32 15.5 -53.5t39.5 -23.5v-3h-202v3q24 2 39.5 23.5t15.5 53.5v533q0 35 -29.5 65.5
t-69.5 30.5q-91 0 -91 -162v-47h90v-15h-90v-405q0 -32 15.5 -53.5t39.5 -23.5v-3h-202z" />
    <glyph glyph-name="f_t" unicode="ft" horiz-adv-x="561" 
d="M40 3q24 2 39.5 23.5t15.5 53.5v405h-50v15h50v17q0 90 48.5 144.5t130.5 54.5q60 0 97 -36t13 -82q-15 -29 -46 -29q-22 0 -37.5 16t-15.5 38q0 21 16.5 38.5t14.5 27.5q-3 20 -38 20q-26 0 -43.5 -9.5t-26.5 -22t-14 -37t-6 -43t-1 -50.5v-47h186q0 33 -35 33v3l127 54
v-90h81v-15h-81v-431q0 -42 35 -55q24 -8 46 3v-2q-25 -16 -66 -16q-45 0 -76 25t-31 83v393h-186v-405q0 -32 15.5 -53.5t39.5 -23.5v-3h-202v3z" />
    <glyph glyph-name="g_i" unicode="gi" horiz-adv-x="796" 
d="M261 71q-58 0 -109 30q-33 15 -60 -0.5t-27 -45.5q0 -27 14.5 -41.5t45.5 -17t61.5 -1t82.5 5.5t89 4q69 0 109 -32t40 -94q0 -71 -57 -118t-179 -47q-66 0 -116 16.5t-74.5 41t-34 50.5t-3.5 48q4 17 18.5 29t33.5 12q21 0 36.5 -15.5t15.5 -36.5q0 -16 -7.5 -33
t-7.5 -26q0 -15 11.5 -31.5t47.5 -32t90 -15.5q71 0 124 33.5t53 85.5q0 24 -11 40t-26.5 23.5t-43 10t-49 1.5t-56.5 -2.5t-55 -1.5q-95 0 -143.5 30.5t-48.5 87.5q0 45 35 68t74 16q-42 32 -66 79t-24 101q0 93 63.5 158t153.5 65q101 0 167 -81q-2 42 15 64.5t63 16.5
q55 -6 96 -3.5t68 21.5t35 55q-18 -28 -50 -28q-26 0 -44 18.5t-18 44.5q0 25 18.5 43t43.5 18t43 -18t18 -43q0 -32 -8.5 -54t-32 -41t-65.5 -22.5t-108 2.5q-25 3 -37.5 -7.5t-13.5 -34.5t3 -48.5t14 -61.5q9 -30 9 -64q0 -92 -63.5 -157t-152.5 -65zM139 293
q0 -90 32 -152.5t90 -62.5t89.5 62.5t31.5 152.5q0 91 -31.5 153.5t-89.5 62.5t-90 -63t-32 -153zM554 0v3q24 2 39.5 23.5t15.5 53.5v348q0 33 -35 33v3l127 36v-420q0 -32 15.5 -53.5t39.5 -23.5v-3h-202z" />
    <glyph glyph-name="i_c" unicode="ic" horiz-adv-x="724" 
d="M40 3q24 2 39.5 23.5t15.5 53.5v348q0 33 -35 33v3l127 36v-420q0 -32 15.5 -53.5t39.5 -23.5v-3h-202v3zM79 624q0 25 18.5 43t43.5 18q45 0 76 -25.5t31 -82.5q0 -79 22 -100.5t72 -8.5q21 5 52 18.5t62 21.5t74 8q77 0 131 -60t41 -119q-3 -18 -17.5 -31t-33.5 -13
q-22 0 -37.5 16t-15.5 38q0 21 20.5 45t20.5 40q0 33 -33.5 55t-75.5 22q-71 0 -104.5 -67t-33.5 -158q0 -121 48.5 -195t113.5 -74q51 0 89 36t53 72h7q-28 -64 -77.5 -101.5t-111.5 -37.5q-89 0 -153 78t-64 188q0 86 40 152q25 43 16 50q-4 3 -10 3q-5 0 -16.5 -0.5
t-17.5 -0.5t-16 2t-18 7q-34 18 -34 114q0 78 -65 97q26 -19 26 -50q0 -26 -18 -44.5t-43 -18.5q-26 0 -44 18.5t-18 44.5z" />
    <glyph glyph-name="i_m" unicode="im" horiz-adv-x="1160" 
d="M625 3q24 2 39.5 23.5t15.5 53.5v298q0 66 -18 98.5t-64 32.5q-48 0 -88.5 -40.5t-40.5 -111.5v-277q0 -32 15.5 -53.5t39.5 -23.5v-3h-202v3q24 2 39.5 23.5t15.5 53.5v348q0 16 -7.5 23t-27.5 7q-6 0 -20.5 -2t-25 -0.5t-21.5 7.5q-34 20 -34 114q0 78 -65 97
q26 -19 26 -50q0 -26 -18 -44.5t-43 -18.5q-26 0 -44 18.5t-18 44.5q0 25 18.5 43t43.5 18q45 0 76 -25.5t31 -82.5q0 -79 22 -100.5t72 -8.5l127 32v-51q23 31 59 49t74 18q101 0 143 -67q60 67 160 67q77 0 123.5 -42.5t46.5 -126.5v-267q0 -32 15.5 -53.5t39.5 -23.5v-3
h-202v3q24 2 39.5 23.5t15.5 53.5v298q0 66 -18 98.5t-64 32.5q-50 0 -96 -31t-41 -70q8 -29 8 -61v-267q0 -32 15.5 -53.5t39.5 -23.5v-3h-202v3zM40 0v3q24 2 39.5 23.5t15.5 53.5v348q0 33 -35 33v3l127 36v-420q0 -32 15.5 -53.5t39.5 -23.5v-3h-202z" />
    <glyph glyph-name="i_n" unicode="in" horiz-adv-x="888" 
d="M656 3q24 2 39.5 23.5t15.5 53.5v298q0 131 -100 131q-59 0 -100.5 -39.5t-41.5 -112.5v-277q0 -32 15.5 -53.5t39.5 -23.5v-3h-202v3q24 2 39.5 23.5t15.5 53.5v348q0 16 -7.5 23t-27.5 7q-6 0 -20.5 -2t-25 -0.5t-21.5 7.5q-34 20 -34 114q0 78 -65 97q26 -19 26 -50
q0 -26 -18 -44.5t-43 -18.5q-26 0 -44 18.5t-18 44.5q0 25 18.5 43t43.5 18q45 0 76 -25.5t31 -82.5q0 -79 22 -100.5t72 -8.5l127 32v-51q51 67 146 67q83 0 135.5 -43t52.5 -126v-267q0 -32 15.5 -53.5t39.5 -23.5v-3h-202v3zM40 0v3q24 2 39.5 23.5t15.5 53.5v348
q0 33 -35 33v3l127 36v-420q0 -32 15.5 -53.5t39.5 -23.5v-3h-202z" />
    <glyph glyph-name="i_p" unicode="ip" horiz-adv-x="816" 
d="M302 -267q24 2 39.5 23.5t15.5 53.5v618q0 16 -7.5 23t-27.5 7q-38 0 -47 5q-34 18 -34 114q0 78 -65 97q26 -19 26 -50q0 -26 -18 -44.5t-43 -18.5q-26 0 -44 18.5t-18 44.5q0 25 18.5 43t43.5 18q45 0 76 -25.5t31 -82.5q0 -76 19 -97t55 -12l127 32v-54q44 70 134 70
q83 0 145.5 -78.5t62.5 -187.5t-62.5 -187.5t-145.5 -78.5q-90 0 -134 70v-244q0 -32 15.5 -53.5t39.5 -23.5v-3h-202v3zM40 0v3q24 2 39.5 23.5t15.5 53.5v348q0 33 -35 33v3l127 36v-420q0 -32 15.5 -53.5t39.5 -23.5v-3h-202zM449 148q0 -76 36.5 -116.5t87.5 -40.5
q63 0 93 74t30 185t-30 185t-93 74q-51 0 -87.5 -40.5t-36.5 -116.5v-204z" />
    <glyph glyph-name="i_r" unicode="ir" horiz-adv-x="725" 
d="M40 3q24 2 39.5 23.5t15.5 53.5v348q0 33 -35 33v3l127 36v-420q0 -32 15.5 -53.5t39.5 -23.5v-3h-202v3zM79 624q0 25 18.5 43t43.5 18q45 0 76 -25.5t31 -82.5q0 -79 22 -100.5t72 -8.5l127 32v-51q45 67 117 67q74 0 111.5 -47t13.5 -98l-1 -1q-15 -29 -46 -29
q-22 0 -37.5 16t-15.5 38q0 23 21.5 42t21.5 31q0 41 -72 41q-47 0 -80 -39.5t-33 -112.5v-277q0 -32 15.5 -53.5t39.5 -23.5v-3h-202v3q24 2 39.5 23.5t15.5 53.5v348q0 16 -7.5 23t-27.5 7q-6 0 -20.5 -2t-25 -0.5t-21.5 7.5q-34 20 -34 114q0 78 -65 97q26 -19 26 -50
q0 -26 -18 -44.5t-43 -18.5q-26 0 -44 18.5t-18 44.5z" />
    <glyph glyph-name="i_s" unicode="is" horiz-adv-x="686" 
d="M40 3q24 2 39.5 23.5t15.5 53.5v348q0 33 -35 33v3l127 36v-420q0 -32 15.5 -53.5t39.5 -23.5v-3h-202v3zM79 624q0 25 18.5 43t43.5 18q45 0 76 -25.5t31 -82.5q0 -55 12 -76.5t37 -20.5q24 1 73 18.5t81 17.5q39 0 76.5 -13t60 -24.5t30.5 -9.5q12 3 12 22h2l4 -140h-2
q-12 64 -60.5 111t-117.5 47q-50 0 -75 -24t-25 -58q0 -35 32 -65t77.5 -52.5t91 -45.5t77.5 -56t32 -72q0 -64 -48 -108t-141 -44q-37 0 -71.5 12t-57.5 23.5t-34 9.5q-18 -3 -20 -29h-2l-10 173h2q8 -68 61 -125t127 -57q56 0 88.5 26t32.5 70q0 25 -22.5 47t-56 39
t-73 38.5t-73 43.5t-56 56t-22.5 74q0 27 15 57q6 6 1.5 12.5t-8.5 9t-14 7t-14 7.5q-29 19 -29 99q0 78 -65 97q26 -19 26 -50q0 -26 -18 -44.5t-43 -18.5q-26 0 -44 18.5t-18 44.5z" />
    <glyph glyph-name="l_i" unicode="li" horiz-adv-x="564" 
d="M322 3q24 2 39.5 23.5t15.5 53.5v348q0 33 -35 33v3l127 36v-420q0 -32 15.5 -53.5t39.5 -23.5v-3h-202v3zM40 0v3q24 2 39.5 23.5t15.5 53.5v546q0 33 -35 33v3l127 54q22 9 42 9q50 0 50 -78q0 -52 27 -88t82 -36q30 0 52.5 16t31.5 48q-18 -26 -49 -26q-26 0 -44 18.5
t-18 44.5q0 25 18.5 43t43.5 18t43 -18t18 -43q0 -51 -27 -79.5t-69 -28.5q-64 0 -90.5 39.5t-26.5 91.5q0 71 -38 71q-46 0 -46 -59v-579q0 -32 15.5 -53.5t39.5 -23.5v-3h-202z" />
    <glyph glyph-name="o_m" unicode="om" horiz-adv-x="1361" 
d="M826 3q24 2 39.5 23.5t15.5 53.5v298q0 66 -18 98.5t-64 32.5q-48 0 -88.5 -40.5t-40.5 -111.5v-277q0 -32 15.5 -53.5t39.5 -23.5v-3h-202v3q24 2 39.5 23.5t15.5 53.5v348q0 37 -35 28q-88 -26 -134 -37q49 -75 49 -169q0 -110 -63.5 -188t-152.5 -78t-153 78t-64 188
t64 188t153 78q97 0 162 -91q20 5 139 39l127 36v-51q23 31 59 49t74 18q101 0 143 -67q60 67 160 67q77 0 123.5 -42.5t46.5 -126.5v-267q0 -32 15.5 -53.5t39.5 -23.5v-3h-202v3q24 2 39.5 23.5t15.5 53.5v298q0 66 -18 98.5t-64 32.5q-50 0 -96 -31t-41 -70q8 -29 8 -61
v-267q0 -32 15.5 -53.5t39.5 -23.5v-3h-202v3zM120 250q0 -108 32 -183.5t90 -75.5t89.5 75.5t31.5 183.5q0 85 -20 153q-50 -9 -74 -9q-25 0 -44.5 14.5t-19.5 45.5q0 44 43 55h-6q-58 0 -90 -75.5t-32 -183.5zM212 454q0 -26 16.5 -39.5t40.5 -13.5q22 0 72 9
q-26 77 -72 94q-32 0 -44.5 -16t-12.5 -34z" />
    <glyph glyph-name="o_n" unicode="on" horiz-adv-x="1089" 
d="M242 -16q-89 0 -153 78t-64 188t64 188t153 78q97 0 162 -91q20 5 139 39l127 36v-51q51 67 146 67q83 0 135.5 -43t52.5 -126v-267q0 -32 15.5 -53.5t39.5 -23.5v-3h-202v3q24 2 39.5 23.5t15.5 53.5v298q0 131 -100 131q-59 0 -100.5 -39.5t-41.5 -112.5v-277
q0 -32 15.5 -53.5t39.5 -23.5v-3h-202v3q24 2 39.5 23.5t15.5 53.5v348q0 37 -35 28q-88 -26 -134 -37q49 -75 49 -169q0 -110 -63.5 -188t-152.5 -78zM120 250q0 -108 32 -183.5t90 -75.5t89.5 75.5t31.5 183.5q0 85 -20 153q-50 -9 -74 -9q-25 0 -44.5 14.5t-19.5 45.5
q0 44 43 55h-6q-58 0 -90 -75.5t-32 -183.5zM212 454q0 -26 16.5 -39.5t40.5 -13.5q22 0 72 9q-26 77 -72 94q-32 0 -44.5 -16t-12.5 -34z" />
    <glyph glyph-name="o_p" unicode="op" horiz-adv-x="1037" 
d="M523 -267q24 2 39.5 23.5t15.5 53.5v618q0 37 -35 28q-88 -26 -134 -37q49 -75 49 -169q0 -110 -63.5 -188t-152.5 -78t-153 78t-64 188t64 188t153 78q97 0 162 -91q20 5 139 39l127 36v-54q44 70 134 70q83 0 145.5 -78.5t62.5 -187.5t-62.5 -187.5t-145.5 -78.5
q-90 0 -134 70v-244q0 -32 15.5 -53.5t39.5 -23.5v-3h-202v3zM120 250q0 -108 32 -183.5t90 -75.5t89.5 75.5t31.5 183.5q0 85 -20 153q-50 -9 -74 -9q-25 0 -44.5 14.5t-19.5 45.5q0 44 43 55h-6q-58 0 -90 -75.5t-32 -183.5zM212 454q0 -26 16.5 -39.5t40.5 -13.5
q22 0 72 9q-26 77 -72 94q-32 0 -44.5 -16t-12.5 -34zM670 148q0 -76 36.5 -116.5t87.5 -40.5q63 0 93 74t30 185t-30 185t-93 74q-51 0 -87.5 -40.5t-36.5 -116.5v-204z" />
    <glyph glyph-name="o_r" unicode="or" horiz-adv-x="926" 
d="M783 509q-47 0 -80 -39.5t-33 -112.5v-277q0 -32 15.5 -53.5t39.5 -23.5v-3h-202v3q24 2 39.5 23.5t15.5 53.5v348q0 37 -35 28q-88 -26 -134 -37q49 -75 49 -169q0 -110 -63.5 -188t-152.5 -78t-153 78t-64 188t64 188t153 78q97 0 162 -91q20 5 139 39l127 36v-51
q45 67 117 67q74 0 111.5 -47t13.5 -98l-1 -1q-15 -29 -46 -29q-22 0 -37.5 16t-15.5 38q0 23 21.5 42t21.5 31q0 41 -72 41zM120 250q0 -108 32 -183.5t90 -75.5t89.5 75.5t31.5 183.5q0 85 -20 153q-50 -9 -74 -9q-25 0 -44.5 14.5t-19.5 45.5q0 44 43 55h-6
q-58 0 -90 -75.5t-32 -183.5zM212 454q0 -26 16.5 -39.5t40.5 -13.5q22 0 72 9q-26 77 -72 94q-32 0 -44.5 -16t-12.5 -34z" />
    <glyph glyph-name="r_a" unicode="ra" horiz-adv-x="735" 
d="M385 509q-73 0 -135.5 -40.5t-62.5 -111.5v-277q0 -32 15.5 -53.5t39.5 -23.5v-3h-202v3q24 2 39.5 23.5t15.5 53.5v348q0 33 -35 33v3l127 36v-69q68 85 207 85q47 0 94 -13t90 -40t70 -75.5t27 -111.5v-220q0 -33 35 -33v-3l-127 -36v53q-41 -53 -103 -53
q-79 0 -131 42.5t-52 113.5q0 65 41.5 107.5t91.5 42.5q38 0 61 -18v-3q-53 9 -76 -30t-23 -99q0 -32 7.5 -63.5t30.5 -58.5t58 -27q47 0 71 40t24 82v173q0 223 -198 223z" />
    <glyph glyph-name="r_i" unicode="ri" horiz-adv-x="594" 
d="M307 508q-46 6 -83 -35.5t-37 -115.5v-277q0 -32 15.5 -53.5t39.5 -23.5v-3h-202v3q24 2 39.5 23.5t15.5 53.5v348q0 33 -35 33v3l127 36v-49q46 74 124 64q86 -10 134 5.5t59 68.5q-18 -28 -51 -28q-26 0 -44 18.5t-18 44.5q0 25 18.5 43t43.5 18t43 -18t18 -43
q0 -26 -4.5 -44.5t-17.5 -36.5t-36 -26.5t-59.5 -13t-89.5 4.5zM352 0v3q24 2 39.5 23.5t15.5 53.5v348q0 33 -35 33v3l127 36v-420q0 -32 15.5 -53.5t39.5 -23.5v-3h-202z" />
    <glyph glyph-name="r_o" unicode="ro" horiz-adv-x="765" 
d="M524 -16q-89 0 -153 78t-64 188q0 80 34 143q30 54 23 75q-13 41 -64 41q-47 0 -80 -39.5t-33 -112.5v-277q0 -32 15.5 -53.5t39.5 -23.5v-3h-202v3q24 2 39.5 23.5t15.5 53.5v348q0 33 -35 33v3l127 36v-51q45 67 117 67q73 0 101 -44q55 44 119 44q89 0 152.5 -78
t63.5 -188t-63.5 -188t-152.5 -78zM402 250q0 -108 32 -183.5t90 -75.5t89.5 75.5t31.5 183.5t-31.5 183.5t-89.5 75.5t-90 -75.5t-32 -183.5z" />
    <glyph glyph-name="s_s" unicode="ss" horiz-adv-x="848" 
d="M639 -16q-61 0 -106 45t-61.5 86t-46.5 134q-3 9 -5 14q-40 127 -90.5 186.5t-135.5 59.5q-50 0 -75 -24t-25 -58q0 -35 32 -65t77.5 -52.5t91 -45.5t77.5 -56t32 -72q0 -64 -48 -108t-141 -44q-37 0 -71.5 12t-57.5 23.5t-34 9.5q-18 -3 -20 -29h-2l-10 173h2
q8 -68 61 -125t127 -57q56 0 88.5 26t32.5 70q0 25 -22.5 47t-56 39t-73 38.5t-73 43.5t-56 56t-22.5 74q0 62 52 96.5t109 34.5q93 0 145 -61.5t93 -191.5q16 -51 27 -82t30.5 -72t38.5 -63t48 -38.5t63 -16.5q56 0 88.5 26t32.5 70q0 25 -22.5 47t-56 39t-73 38.5
t-73 43.5t-56 56t-22.5 74q0 62 52 96.5t109 34.5q39 0 76.5 -13t60 -24.5t30.5 -9.5q12 3 12 22h2l4 -140h-2q-12 64 -60.5 111t-117.5 47q-50 0 -75 -24t-25 -58q0 -35 32 -65t77.5 -52.5t91 -45.5t77.5 -56t32 -72q0 -64 -48 -108t-141 -44z" />
    <glyph glyph-name="s_t" unicode="st" horiz-adv-x="687" 
d="M215 -16q-37 0 -71.5 12t-57.5 23.5t-34 9.5q-18 -3 -20 -29h-2l-10 173h2q8 -68 61 -125t127 -57q56 0 88.5 26t32.5 70q0 25 -22.5 47t-56 39t-73 38.5t-73 43.5t-56 56t-22.5 74q0 62 52 96.5t109 34.5q13 0 26 -1.5t20.5 -2.5t20 -5t15.5 -5.5t16 -7t14 -5.5
q31 -13 50.5 -12.5t28 9.5t9.5 29.5t-2.5 41.5t-11.5 52q-11 42 20.5 74.5t82.5 32.5q58 0 85.5 -29.5t27.5 -96.5v-90h81v-15h-81v-431q0 -42 35 -55q24 -8 46 3v-2q-25 -16 -66 -16q-45 0 -76 25t-31 83v408q0 33 -35 33v3q6 2 18 8q51 24 72.5 64t1.5 70.5t-78 30.5
q-45 0 -76 -29t-20 -71q10 -37 14.5 -56t4.5 -40.5t-9 -32.5q-3 -4 -7.5 -8t-7 -6.5t-4.5 -8t-2 -13.5l3 -93h-2q-12 64 -60.5 111t-117.5 47q-50 0 -75 -24t-25 -58q0 -35 32 -65t77.5 -52.5t91 -45.5t77.5 -56t32 -72q0 -64 -48 -108t-141 -44z" />
    <glyph glyph-name="t_t" unicode="tt" horiz-adv-x="526" 
d="M167 54q0 -47 35 -53q30 -5 57 8.5t43.5 34.5t26 40t9.5 28v373h-171v-431zM40 500v3l127 54v-57h171v55q0 33 -35 33v3l127 54v-145h81v-15h-81v-431q0 -42 35 -55q24 -8 46 3v-2q-25 -16 -66 -16q-44 0 -75 24t-32 80q-5 -14 -14 -27.5t-27 -33t-48 -31.5t-67 -12
q-45 0 -76 25t-31 83v375q0 33 -35 33z" />
    <glyph glyph-name=".notdef" horiz-adv-x="610" 
d="M500 950v-1220h-387v1220h387zM204 -186h202v40h-124l85 58h39v40h-202v-40h85l-85 -58v-40zM204 -20h202v138h-202v-138zM204 191h202v138h-122v-68h42v28h40v-58h-122v98h-40v-138zM204 356h202v122h-40v-81h-162v-41zM204 425h122v86h80v40h-202v-40h80v-45h-80v-41z
M204 584h202v41h-80v86h-122v-127zM204 743h202v40h-80v45h80v40h-201v-40h79v-45h-80v-40zM244 20v58h122v-58h-122zM244 625v44h40v-44h-40z" />
    <glyph glyph-name=".null" horiz-adv-x="0" 
 />
    <glyph glyph-name="nonmarkingreturn" horiz-adv-x="333" 
 />
    <glyph glyph-name="space" unicode=" " horiz-adv-x="250" 
 />
    <glyph glyph-name="space" unicode="&#xa0;" horiz-adv-x="250" 
 />
    <glyph glyph-name="exclam" unicode="!" horiz-adv-x="190" 
d="M89 163q0 29 -22 244t-22 244q0 65 52 65q53 0 53 -65q0 -29 -27 -244t-27 -244h-7zM40 38q0 21 15.5 36.5t37.5 15.5q21 0 36.5 -15.5t15.5 -36.5q0 -22 -15.5 -38t-36.5 -16q-22 0 -37.5 16t-15.5 38z" />
    <glyph glyph-name="quotedbl" unicode="&#x22;" horiz-adv-x="274" 
d="M70 716q27 0 44 -24q25 -41 -4 -95t-65 -54q11 0 22 14t11 30q0 10 -9 18t-20 12.5t-20 16.5t-9 30q0 22 15 37t35 15zM149 664q0 22 15 37t35 15q27 0 44 -24q25 -41 -4 -95t-65 -54q12 0 22.5 14t10.5 30q0 10 -9 18t-20 12.5t-20 16.5t-9 30z" />
    <glyph glyph-name="numbersign" unicode="#" horiz-adv-x="446" 
d="M228 -16l57 175h-184l-57 -175h-20l57 175h-76v20h82l47 142h-80v20h86l57 175h20l-57 -175h184l57 175h20l-57 -175h77v-20h-83l-47 -142h81v-20h-87l-57 -175h-20zM107 179h184l47 142h-184z" />
    <glyph glyph-name="dollar" unicode="$" horiz-adv-x="507" 
d="M251 31h-13v-47h-20v50q-41 6 -95.5 29t-62.5 23q-17 0 -24 -41h-3l-13 215h4q60 -195 194 -216v292q-45 22 -70 36.5t-56.5 38.5t-46 51.5t-14.5 61.5q0 75 57.5 113t129.5 39v40h20v-41q60 -4 170 -52q26 -11 33 23h4l6 -170h-4q-14 76 -73.5 129.5t-135.5 59.5v-235
q8 -4 34 -16.5t35.5 -17.5t33 -18t34 -20t29.5 -20t28 -23t22 -24.5t18.5 -28t10 -30t4.5 -33.5q0 -55 -37.5 -94.5t-89.5 -56.5t-109 -17zM98 560q0 -34 30.5 -61.5t89.5 -58.5v226q-47 -1 -83.5 -28.5t-36.5 -77.5zM238 41h13q56 0 102.5 36.5t46.5 87.5q0 27 -12.5 50.5
t-38.5 43.5t-49 34t-62 33v-285z" />
    <glyph glyph-name="percent" unicode="%" horiz-adv-x="344" 
d="M20 -16l283 732h21l-282 -732h-22zM20 562q0 33 21.5 55.5t47.5 22.5t47 -22t21 -56t-21 -56.5t-47 -22.5t-47.5 22.5t-21.5 56.5zM50 562q0 -32 11 -50.5t28 -18.5t27.5 18.5t10.5 50.5q0 31 -10.5 49.5t-27.5 18.5t-28 -18.5t-11 -49.5zM179 140q0 33 21.5 55.5
t47.5 22.5t47 -22t21 -56t-21 -56.5t-47 -22.5t-47.5 22.5t-21.5 56.5zM209 140q0 -32 11 -50.5t28 -18.5t27.5 18.5t10.5 50.5q0 31 -10.5 49.5t-27.5 18.5t-28 -18.5t-11 -49.5z" />
    <glyph glyph-name="ampersand" unicode="&#x26;" horiz-adv-x="631" 
d="M282 -16q-111 0 -184 63t-73 153q0 54 24.5 97t58.5 65t62.5 33.5t45.5 11.5q-36 0 -86 41.5t-50 101.5q0 72 56 119t148 47q86 0 145 -43t59 -98q0 -52 -35 -82.5t-75 -30.5q-35 0 -57 13v3q32 13 49.5 34.5t17.5 62.5q0 50 -29.5 90.5t-74.5 40.5q-48 0 -76 -40.5
t-28 -114.5q0 -121 86 -143v-3q-49 -14 -92.5 -65.5t-43.5 -139.5q0 -35 7.5 -69t24 -66t47.5 -51.5t73 -19.5q82 0 116.5 46t34.5 113q0 75 -32 104q-51 -60 -101 -60q-22 0 -41.5 19.5t-19.5 41.5h3q5 -5 13 -5q23 0 45.5 21.5t42 52.5t42.5 61.5t57.5 52t75.5 21.5
q35 0 62.5 -23.5t38.5 -54t5 -62.5t-31 -48q-15 -12 -36 -12q-26 0 -44.5 19t-18.5 45q0 36 29 54q14 8 34.5 9.5t33 1t12.5 4.5q0 6 -6.5 12.5t-17.5 6.5q-22 0 -42 -8.5t-40 -29.5t-30.5 -33.5t-32.5 -43.5q104 -24 104 -121q0 -78 -73 -136t-183 -58z" />
    <glyph glyph-name="quotesingle" unicode="'" horiz-adv-x="145" 
d="M70 716q27 0 44 -24q25 -41 -4 -95t-65 -54q11 0 22 14t11 30q0 10 -9 18t-20 12.5t-20 16.5t-9 30q0 22 15 37t35 15z" />
    <glyph glyph-name="parenleft" unicode="(" horiz-adv-x="260" 
d="M25 349q0 117 23 203t75.5 138.5t131.5 52.5v-4q-25 -2 -44.5 -13.5t-32.5 -27t-22 -44.5t-14 -56t-8 -72t-3.5 -81.5t-0.5 -95.5t0.5 -95.5t3.5 -81.5t8 -72t14 -56t22 -44.5t32.5 -27t44.5 -13.5v-4q-79 0 -131.5 52.5t-75.5 138.5t-23 203z" />
    <glyph glyph-name="parenright" unicode=")" horiz-adv-x="260" 
d="M235 349q0 -117 -23 -203t-75.5 -138.5t-131.5 -52.5v4q25 2 44.5 13.5t32.5 27t22 44.5t14 56t8 72t3.5 81.5t0.5 95.5t-0.5 95.5t-3.5 81.5t-8 72t-14 56t-22 44.5t-32.5 27t-44.5 13.5v4q79 0 131.5 -52.5t75.5 -138.5t23 -203z" />
    <glyph glyph-name="asterisk" unicode="*" horiz-adv-x="204" 
d="M20 634q0 8 20 8q1 0 49 -3q-6 6 -18.5 17t-17.5 16q-15 14 -9 20t20 -9q5 -5 16 -17.5t17 -18.5q-3 48 -3 49q0 20 8 20t8 -20q0 -1 -3 -49q6 6 17 18.5t16 17.5q14 15 20 9t-9 -20q-5 -5 -17.5 -16t-18.5 -17q48 3 49 3q20 0 20 -8t-20 -8q-1 0 -49 3q6 -6 18.5 -17
t17.5 -16q15 -14 9 -20t-20 9q-5 5 -16 17.5t-17 18.5q3 -48 3 -49q0 -20 -8 -20t-8 20q0 1 3 49q-6 -6 -17 -18.5t-16 -17.5q-14 -15 -20 -9t9 20q5 5 17.5 16t18.5 17q-48 -3 -49 -3q-20 0 -20 8z" />
    <glyph glyph-name="plus" unicode="+" horiz-adv-x="290" 
d="M270 323v-20h-115v-115h-20v115h-115v20h115v115h20v-115h115z" />
    <glyph glyph-name="comma" unicode="," horiz-adv-x="145" 
d="M70 106q27 0 44 -24q25 -41 -4 -95t-65 -54q11 0 22 14t11 30q0 10 -9 18t-20 12.5t-20 16.5t-9 30q0 22 15 37t35 15z" />
    <glyph glyph-name="hyphen" unicode="-" horiz-adv-x="240" 
d="M220 323v-20h-200v20h200z" />
    <glyph glyph-name="period" unicode="." horiz-adv-x="145" 
d="M73 0q-22 0 -37.5 16t-15.5 38q0 21 15.5 36.5t37.5 15.5q21 0 36.5 -15.5t15.5 -36.5q0 -22 -15.5 -38t-36.5 -16z" />
    <glyph glyph-name="slash" unicode="/" horiz-adv-x="325" 
d="M5 -53l294 803h21l-293 -803h-22z" />
    <glyph glyph-name="zero" unicode="0" horiz-adv-x="576" 
d="M289 -16q-102 0 -183 108.5t-81 256.5q0 149 81 258t183 109q100 0 181 -109t81 -258q0 -147 -81 -256t-181 -109zM130 349q0 -152 44.5 -253.5t114.5 -101.5t113.5 101t43.5 254q0 155 -43.5 256t-113.5 101t-114.5 -101.5t-44.5 -255.5z" />
    <glyph glyph-name="one" unicode="1" horiz-adv-x="296" 
d="M40 4q24 2 41 24.5t17 55.5v531q0 19 -15 29t-37 10v4l152 58v-632q0 -33 17 -55.5t41 -24.5v-4h-216v4z" />
    <glyph glyph-name="two" unicode="2" horiz-adv-x="488" 
d="M113 476q-33 0 -52 29q-11 16 -13 42.5t8.5 55.5t31.5 54.5t59 42t86 16.5q50 0 98.5 -16t86.5 -57.5t38 -100.5q0 -52 -24.5 -95t-62.5 -71t-86 -58.5t-92 -57t-83 -68.5t-57 -92h306q67 0 102 49h4l-62 -149h-376q0 62 19 118.5t48.5 100.5t66 85t73 77.5t66 70.5
t48.5 72t19 75q0 49 -37 78t-95 29q-56 0 -88 -23t-32 -43q0 -15 15.5 -28.5t31.5 -30.5t16 -41q0 -26 -18.5 -45t-44.5 -19z" />
    <glyph glyph-name="three" unicode="3" horiz-adv-x="508" 
d="M117 476q-33 0 -52 29q-11 16 -12 42.5t11 55.5t33.5 54.5t59.5 42t86 16.5q80 0 147 -38.5t67 -111.5q0 -67 -42 -111t-122 -58q190 -25 190 -204q0 -92 -75 -150.5t-171 -58.5q-108 0 -160 49.5t-52 126.5q0 26 18.5 44t43.5 18q26 0 44.5 -18t18.5 -44q0 -30 -27 -54
t-27 -43q0 -26 37.5 -47.5t94.5 -21.5q44 0 75 17.5t46.5 48.5t22 63t6.5 70q0 18 -3 39.5t-14.5 51t-30 52t-52.5 38.5t-79 16v10q18 0 41.5 7t51.5 23.5t46.5 51.5t18.5 84q0 57 -28 98.5t-86 41.5q-49 0 -87.5 -24t-38.5 -42q0 -15 15.5 -28.5t31.5 -30.5t16 -41
q0 -26 -18.5 -45t-44.5 -19z" />
    <glyph glyph-name="four" unicode="4" horiz-adv-x="492" 
d="M236 4q24 2 41 24.5t17 55.5v123h-290l365 493h25v-483h40v-10h-40v-123q0 -33 17 -55.5t41 -24.5v-4h-216v4zM21 217h273v367z" />
    <glyph glyph-name="five" unicode="5" horiz-adv-x="519" 
d="M388 700q67 0 102 49h4l-62 -149h-279l-44 -214q7 1 33.5 5.5t48 6.5t46.5 2q111 0 178.5 -49t67.5 -158q0 -92 -75 -150.5t-171 -58.5q-108 0 -160 49.5t-52 126.5q0 26 18.5 44t43.5 18q26 0 44.5 -18t18.5 -44q0 -30 -27 -54t-27 -43q0 -26 37.5 -47.5t94.5 -21.5
q44 0 75 17.5t46.5 48.5t22 63t6.5 70q0 23 -5.5 50.5t-20 63t-47.5 58.5t-80 24q-25 0 -46 -2t-49 -6.5t-33 -5.5l67 325h224z" />
    <glyph glyph-name="six" unicode="6" horiz-adv-x="475" 
d="M335 545q-25 0 -43.5 19t-18.5 45q0 27 21.5 47t21.5 23q2 15 -13 21t-33 6q-105 0 -133 -265q43 41 107 41q75 0 140.5 -61.5t65.5 -178.5q0 -103 -60 -180.5t-146 -77.5q-97 0 -158 81t-61 239q0 173 72.5 292.5t172.5 119.5q52 0 90 -30.5t37 -67.5q0 -33 -18.5 -53
t-43.5 -20zM130 279q6 -285 114 -285q32 0 53.5 20.5t31 58.5t13 73.5t3.5 82.5q0 108 -30 175.5t-78 67.5q-43 0 -73.5 -45.5t-33.5 -147.5z" />
    <glyph glyph-name="seven" unicode="7" horiz-adv-x="418" 
d="M413 700q0 -21 -17 -57t-47.5 -87t-33.5 -56q-98 -182 -131 -279.5t-33 -220.5h-105q0 77 21.5 151.5t61.5 141.5t74.5 114.5t84.5 108t68 84.5h-246q-55 0 -100 -49h-5l61 149h347z" />
    <glyph glyph-name="eight" unicode="8" horiz-adv-x="563" 
d="M216 407q-38 0 -87 41.5t-49 101.5q0 72 56 119t148 47q89 0 146.5 -47.5t57.5 -118.5q0 -59 -52.5 -101t-88.5 -42q11 0 32 -6.5t49 -22.5t52 -38.5t41 -59.5t17 -80q0 -90 -72 -153t-184 -63q-111 0 -184 63t-73 153q0 54 24.5 97t58.5 65t62.5 33.5t45.5 11.5z
M130 200q0 -35 7.5 -69t24 -66t47.5 -51.5t73 -19.5q56 0 92 35t47.5 78.5t11.5 92.5q0 97 -44.5 148.5t-106.5 51.5q-71 0 -111.5 -50t-40.5 -150zM180 551q0 -68 29.5 -104.5t72.5 -36.5q49 0 77.5 36.5t28.5 104.5q0 74 -28 114.5t-76 40.5t-76 -40.5t-28 -114.5z" />
    <glyph glyph-name="nine" unicode="9" horiz-adv-x="475" 
d="M140 155q25 0 43.5 -19t18.5 -45q0 -27 -21.5 -47t-21.5 -23q-2 -15 13 -21t33 -6q105 0 133 265q-43 -41 -107 -41q-75 0 -140.5 61.5t-65.5 178.5q0 103 60 180.5t146 77.5q97 0 158 -81t61 -239q0 -173 -72.5 -292.5t-172.5 -119.5q-52 0 -90 30.5t-37 67.5
q0 33 18.5 53t43.5 20zM130 471q0 -108 30 -175.5t78 -67.5q43 0 73.5 45.5t33.5 147.5q-6 285 -114 285q-32 0 -53.5 -20.5t-31 -58.5t-13 -73.5t-3.5 -82.5z" />
    <glyph glyph-name="colon" unicode=":" horiz-adv-x="145" 
d="M73 357q-22 0 -37.5 16t-15.5 38q0 21 15.5 36.5t37.5 15.5q21 0 36.5 -15.5t15.5 -36.5q0 -22 -15.5 -38t-36.5 -16zM20 121q0 22 15.5 38t36.5 16q22 0 37.5 -16t15.5 -38q0 -21 -15.5 -36.5t-37.5 -15.5q-21 0 -36.5 15.5t-15.5 36.5z" />
    <glyph glyph-name="semicolon" unicode=";" horiz-adv-x="145" 
d="M73 357q-22 0 -37.5 16t-15.5 38q0 21 15.5 36.5t37.5 15.5q21 0 36.5 -15.5t15.5 -36.5q0 -22 -15.5 -38t-36.5 -16zM20 122q0 22 15 37t35 15q27 0 44 -24q25 -41 -4 -95t-65 -54q11 0 22 14t11 30q0 10 -9 18t-20 12.5t-20 16.5t-9 30z" />
    <glyph glyph-name="less" unicode="&#x3c;" horiz-adv-x="270" 
d="M255 373l-201 -116l201 -116v-23l-240 139l240 139v-23z" />
    <glyph glyph-name="equal" unicode="=" horiz-adv-x="290" 
d="M270 365v-20h-250v20h250zM20 175v20h250v-20h-250z" />
    <glyph glyph-name="greater" unicode="&#x3e;" horiz-adv-x="270" 
d="M15 373v23l240 -139l-240 -139v23l201 116z" />
    <glyph glyph-name="question" unicode="?" horiz-adv-x="386" 
d="M79 476q-33 0 -52 29q-11 16 -12.5 42.5t9.5 55.5t31.5 54.5t57 42t82.5 16.5q66 0 121 -44t55 -130q0 -45 -24 -83.5t-56 -67.5t-62 -62t-45 -83.5t-3 -116.5h-10q-20 56 -6 122.5t38.5 115.5t48 105.5t23.5 92.5q0 141 -91 141q-41 0 -73 -21t-32 -40q0 -15 15.5 -31
t31.5 -34t16 -40q0 -26 -18.5 -45t-44.5 -19zM125 38q0 21 15.5 36.5t37.5 15.5q21 0 36.5 -15.5t15.5 -36.5q0 -22 -15.5 -38t-36.5 -16q-22 0 -37.5 16t-15.5 38z" />
    <glyph glyph-name="at" unicode="@" horiz-adv-x="790" 
d="M467 445q5 26 -16.5 51t-48.5 25q-41 0 -74 -44t-40 -109q-16 -149 79 -149q57 0 79 105v3zM25 349q0 152 108.5 259.5t263.5 107.5q152 0 260 -107.5t108 -259.5q0 -97 -41 -154.5t-124 -57.5q-52 0 -96 26t-58 78q-34 -53 -101 -53q-22 0 -45.5 8.5t-47 26t-36.5 52
t-8 78.5q6 57 26.5 98.5t49.5 62t56 29t54 8.5q59 0 85 -41l82 13l-35 -196q-14 -87 4.5 -133.5t69.5 -46.5q44 0 64.5 45t20.5 157q0 143 -92 250t-197 107q-107 0 -199 -107t-92 -250q0 -142 92 -248.5t199 -106.5q118 0 212 68l7 -7q-98 -71 -218 -71q-155 0 -263.5 107
t-108.5 258z" />
    <glyph glyph-name="A" unicode="A" horiz-adv-x="687" 
d="M5 4q24 2 49.5 24t38.5 56l230 616h25l244 -616q30 -74 90 -80v-4h-219v4q22 2 29.5 21.5t-5.5 57.5l-61 154h-266l-57 -153q-11 -30 -3.5 -54t29.5 -26v-4h-124v4zM164 247h258l-133 336z" />
    <glyph glyph-name="B" unicode="B" horiz-adv-x="671" 
d="M40 4q24 2 41 24.5t17 55.5v532q0 33 -17 55.5t-41 24.5v4h272q124 0 196.5 -47.5t72.5 -118.5q0 -58 -50 -102t-139 -59q118 -5 186 -47t68 -139q0 -55 -26.5 -93.5t-75 -58t-103 -27.5t-124.5 -8h-277v4zM198 10h119q95 0 159.5 44t64.5 133t-65 134.5t-159 45.5h-5v4
q82 0 125.5 46t43.5 117q0 70 -43.5 113t-125.5 43h-114v-680z" />
    <glyph glyph-name="C" unicode="C" horiz-adv-x="658" 
d="M363 706q-76 0 -131 -52.5t-78.5 -122t-23.5 -141.5q0 -95 26 -168.5t68 -114t87.5 -60t90.5 -19.5q48 0 91 19.5t69.5 47t41.5 48t19 31.5h10q-4 -11 -12 -26.5t-30.5 -46.5t-51 -55t-75.5 -43t-101 -19q-147 0 -242.5 106t-95.5 259q0 150 102 258.5t236 108.5
q42 0 85.5 -11t76.5 -24.5t42 -14.5q13 -2 20.5 6.5t11.5 27.5h4l13 -249h-4q-67 255 -249 255z" />
    <glyph glyph-name="D" unicode="D" horiz-adv-x="697" 
d="M567 350q0 66 -17.5 124t-54.5 108t-102 79t-152 29h-43v-680h43q87 0 152 29t102 79t54.5 108t17.5 124zM40 0v4q24 2 41 24.5t17 55.5v532q0 33 -17 55.5t-41 24.5v4h201q209 0 320 -96.5t111 -253.5t-111 -253.5t-320 -96.5h-201z" />
    <glyph glyph-name="E" unicode="E" horiz-adv-x="612" 
d="M419 10q34 0 64.5 13t54.5 37.5t36.5 40.5t28.5 41h4l-59 -142h-508v4q24 2 41 24.5t17 55.5v532q0 33 -17 55.5t-41 24.5v4h486l52 -126h-4q-14 22 -27 38t-35 36t-51 31t-64 11h-199v-341h117q33 0 55.5 17t24.5 41h4v-126h-4q-2 24 -24.5 41t-55.5 17h-117v-329h221z
" />
    <glyph glyph-name="F" unicode="F" horiz-adv-x="583" 
d="M395 281q-2 24 -24.5 41t-55.5 17h-117v-255q0 -33 17 -55.5t41 -24.5v-4h-216v4q24 2 41 24.5t17 55.5v532q0 33 -17 55.5t-41 24.5v4h486l52 -126h-4q-14 22 -27 38t-35 36t-51 31t-64 11h-199v-341h117q33 0 55.5 17t24.5 41h4v-126h-4z" />
    <glyph glyph-name="G" unicode="G" horiz-adv-x="716" 
d="M363 -16q-147 0 -242.5 106t-95.5 259q0 150 102 258.5t236 108.5q42 0 85.5 -11t76.5 -24.5t42 -14.5q13 -2 20.5 6.5t11.5 27.5h4l13 -249h-4q-67 255 -249 255q-76 0 -131 -52.5t-78.5 -122t-23.5 -141.5q0 -95 26 -169.5t68 -116t87.5 -62.5t90.5 -21q71 0 132 43
v169q0 33 -16.5 55.5t-40.5 24.5v4h214v-4q-24 -2 -40.5 -24.5t-16.5 -55.5v-233h-5q-2 2 -10 15t-12.5 19t-12.5 13.5t-15 8.5q-10 2 -24.5 -4.5t-35.5 -19.5t-24 -15q-63 -33 -132 -33z" />
    <glyph glyph-name="H" unicode="H" horiz-adv-x="755" 
d="M198 356h359v260q0 33 -17 55.5t-41 24.5v4h216v-4q-24 -2 -41 -24.5t-17 -55.5v-532q0 -33 17 -55.5t41 -24.5v-4h-216v4q24 2 41 24.5t17 55.5v262h-359v-262q0 -33 17 -55.5t41 -24.5v-4h-216v4q24 2 41 24.5t17 55.5v532q0 33 -17 55.5t-41 24.5v4h216v-4
q-24 -2 -41 -24.5t-17 -55.5v-260z" />
    <glyph glyph-name="I" unicode="I" horiz-adv-x="296" 
d="M40 4q24 2 41 24.5t17 55.5v532q0 33 -17 55.5t-41 24.5v4h216v-4q-24 -2 -41 -24.5t-17 -55.5v-532q0 -33 17 -55.5t41 -24.5v-4h-216v4z" />
    <glyph glyph-name="J" unicode="J" horiz-adv-x="446" 
d="M258 616q0 33 -17 55.5t-41 24.5v4h216v-4q-24 -2 -41 -24.5t-17 -55.5v-448q0 -46 -18 -86t-62 -69t-106 -29q-82 0 -124.5 51t-42.5 109q0 25 18.5 43.5t44.5 18.5q25 0 43.5 -18.5t18.5 -43.5q0 -26 -22.5 -50.5t-24.5 -42.5q-2 -20 20 -38.5t69 -18.5q28 0 46.5 11.5
t26.5 34t10.5 44t2.5 53.5v479z" />
    <glyph glyph-name="K" unicode="K" horiz-adv-x="661" 
d="M40 4q24 2 41 24.5t17 55.5v532q0 33 -17 55.5t-41 24.5v4h216v-4q-24 -2 -41 -24.5t-17 -55.5v-277q31 34 126 101t113 97q17 29 36 89q21 66 -19 70v4h127v-4q-26 -3 -58 -25t-42 -52q-22 -63 -33 -82q-7 -13 -19 -26t-31.5 -28.5t-33.5 -25.5t-41 -29t-38 -27
q72 -4 118 -52.5t80 -145.5q34 -95 74.5 -148t98.5 -41v-4q-26 -26 -92 -26q-35 0 -63.5 15.5t-49.5 45.5t-35.5 60.5t-28.5 72.5q-43 126 -61 158q-28 48 -62 49q-45 -33 -66 -60v-241q0 -33 17 -55.5t41 -24.5v-4h-216v4z" />
    <glyph glyph-name="L" unicode="L" horiz-adv-x="585" 
d="M392 10q34 0 64.5 13t54.5 37.5t36.5 40.5t28.5 41h4l-59 -142h-481v4q24 2 41 24.5t17 55.5v532q0 33 -17 55.5t-41 24.5v4h216v-4q-24 -2 -41 -24.5t-17 -55.5v-606h194z" />
    <glyph glyph-name="M" unicode="M" horiz-adv-x="829" 
d="M574 4q24 2 40.5 24.5t16.5 55.5v592l-257 -617h-10l-257 558v-533q0 -33 16.5 -55.5t40.5 -24.5v-4h-124v4q24 2 40.5 24.5t16.5 55.5v532q0 33 -16.5 55.5t-40.5 24.5v4h133l241 -522l217 522h158v-4q-24 -2 -41 -24.5t-17 -55.5v-532q0 -33 17 -55.5t41 -24.5v-4h-215
v4z" />
    <glyph glyph-name="N" unicode="N" horiz-adv-x="703" 
d="M663 696q-24 -2 -41 -24.5t-17 -55.5v-616h-10l-488 634v-550q0 -33 16.5 -55.5t40.5 -24.5v-4h-124v4q24 2 40.5 24.5t16.5 55.5v532q0 33 -16.5 55.5t-40.5 24.5v4h136l419 -545v461q0 33 -16.5 55.5t-40.5 24.5v4h125v-4z" />
    <glyph glyph-name="O" unicode="O" horiz-adv-x="674" 
d="M339 -16q-131 0 -222.5 107t-91.5 258q0 153 91.5 260t222.5 107q128 0 219 -107.5t91 -259.5q0 -151 -91 -258t-219 -107zM130 349q0 -147 60.5 -251t147.5 -104q85 0 145.5 104t60.5 251q0 148 -60.5 252.5t-145.5 104.5q-87 0 -147.5 -104.5t-60.5 -252.5z" />
    <glyph glyph-name="P" unicode="P" horiz-adv-x="602" 
d="M477 485q0 26 -3.5 49t-17 53.5t-36.5 51.5t-66.5 36t-101.5 15h-54v-410h54q58 0 101.5 15t66.5 36t36.5 51.5t17 53.5t3.5 49zM40 0v4q24 2 41 24.5t17 55.5v532q0 33 -17 55.5t-41 24.5v4h216q326 0 326 -215t-326 -215h-58v-186q0 -33 17 -55.5t41 -24.5v-4h-216z
" />
    <glyph glyph-name="Q" unicode="Q" horiz-adv-x="674" 
d="M339 -16q-131 0 -222.5 107t-91.5 258q0 153 91.5 260t222.5 107q128 0 219 -107.5t91 -259.5q0 -124 -64 -221.5t-163 -130.5q16 -51 39.5 -77t60.5 -26q3 0 7.5 1t9.5 3t5 5.5t-6 9.5q-29 19 -29 54q0 25 18.5 43.5t44.5 18.5q25 0 43.5 -18.5t18.5 -43.5
q0 -43 -32.5 -68t-64.5 -25q-51 0 -79.5 30t-46.5 90q-33 -10 -72 -10zM130 349q0 -53 9 -101q8 31 36.5 52.5t70.5 21.5q16 0 30 -3.5t26 -12.5t21.5 -16t18.5 -24t15 -26.5t13 -33t10 -33t9.5 -37t8 -36t7.5 -38.5q2 -9 5.5 -24t4.5 -18q58 40 93.5 129.5t35.5 199.5
q0 148 -60.5 252.5t-145.5 104.5q-87 0 -147.5 -104.5t-60.5 -252.5zM146 212q24 -97 76 -157.5t116 -60.5q36 0 68 20q-7 28 -11 48q-28 131 -47 173q-36 77 -102 77q-51 0 -78.5 -31.5t-21.5 -68.5z" />
    <glyph glyph-name="R" unicode="R" horiz-adv-x="672" 
d="M577 -16q-52 0 -84.5 30t-46.5 72.5t-24.5 85t-30.5 72.5t-53 30q-33 -4 -82 -4h-58v-186q0 -33 17 -55.5t41 -24.5v-4h-216v4q24 2 41 24.5t17 55.5v532q0 33 -17 55.5t-41 24.5v4h216q326 0 326 -215q0 -159 -181 -201q48 -11 79.5 -46t46.5 -74.5t30 -77t41.5 -58.5
t68.5 -14v-4q-26 -26 -90 -26zM198 280h54q58 0 101.5 15t66.5 36t36.5 51.5t17 53.5t3.5 49t-3.5 49t-17 53.5t-36.5 51.5t-66.5 36t-101.5 15h-54v-410z" />
    <glyph glyph-name="S" unicode="S" horiz-adv-x="569" 
d="M247 716q-82 0 -148.5 -43t-66.5 -129q0 -49 31 -90t77.5 -66.5t101 -54.5t101 -54t77.5 -64.5t31 -86.5q0 -55 -50 -94t-119 -39q-183 0 -258 249h-4l14 -244h4q7 46 27 46q11 0 43.5 -15.5t80 -31t93.5 -15.5q70 0 129 19.5t98.5 64t39.5 106.5q0 52 -33 97t-82 74.5
t-106.5 59.5t-106.5 54t-82 56.5t-33 68.5q0 58 43 90t98 32q92 0 166 -63t91 -154h4l-6 193h-4q-10 -39 -38 -26q-129 60 -213 60z" />
    <glyph glyph-name="T" unicode="T" horiz-adv-x="644" 
d="M214 4q24 2 41 24.5t17 55.5v606h-86q-35 0 -64 -11t-51 -31t-35 -36t-27 -38h-4l52 126h530l52 -126h-4q-14 22 -27 38t-35 36t-51 31t-64 11h-86v-606q0 -33 17 -55.5t41 -24.5v-4h-216v4z" />
    <glyph glyph-name="U" unicode="U" horiz-adv-x="731" 
d="M187 246q0 -252 200 -252q109 0 178 64.5t69 164.5v393q0 33 -16.5 55.5t-40.5 24.5v4h124v-4q-24 -2 -40.5 -24.5t-16.5 -55.5v-393q0 -105 -72 -172t-185 -67q-57 0 -105.5 13t-94.5 43.5t-73 91.5t-27 147v337q0 33 -16.5 55.5t-40.5 24.5v4h214v-4
q-24 -2 -40.5 -24.5t-16.5 -55.5v-370z" />
    <glyph glyph-name="V" unicode="V" horiz-adv-x="707" 
d="M206 696q-14 -1 -21.5 -12.5t-6.5 -29.5t10 -38l223 -492l200 492q13 31 6 54.5t-29 25.5v4h114v-4q-21 -2 -44.5 -25.5t-36.5 -54.5l-251 -616h-10l-280 616q-14 30 -39 54t-46 26v4h211v-4z" />
    <glyph glyph-name="W" unicode="W" horiz-adv-x="1100" 
d="M216 696q-21 -2 -27.5 -27t5.5 -53l202 -480l190 564h25l211 -571l184 487q11 30 4 54t-29 26v4h114v-4q-22 -2 -44.5 -25t-34.5 -55l-233 -616h-10l-221 570l-151 -447l1 -2l-42 -121h-10l-263 616q-14 32 -37 55t-45 25v4h211v-4z" />
    <glyph glyph-name="X" unicode="X" horiz-adv-x="663" 
d="M440 4q15 1 21 11.5t2.5 28.5t-17.5 40l-157 253l-169 -253q-21 -31 -20.5 -54.5t22.5 -25.5v-4h-117v4q24 2 53 24.5t51 55.5l175 262l-168 270q-19 30 -48.5 54t-51.5 26v4h218v-4q-15 -1 -21.5 -11.5t-2.5 -28.5t18 -40l125 -202l132 202q20 29 19.5 53.5t-22.5 26.5
v4h116v-4q-22 -2 -52.5 -25.5t-50.5 -54.5l-137 -210l199 -322q21 -34 49 -56t52 -24v-4h-218v4z" />
    <glyph glyph-name="Y" unicode="Y" horiz-adv-x="682" 
d="M233 4q24 2 41 24.5t17 55.5v197l-190 335q-18 31 -46 54.5t-50 25.5v4h206v-4q-21 -2 -23.5 -27.5t13.5 -52.5l185 -326l185 326q17 29 14 53.5t-24 26.5v4h116v-4q-22 -2 -49.5 -25.5t-45.5 -54.5l-191 -335v-197q0 -33 17 -55.5t41 -24.5v-4h-216v4z" />
    <glyph glyph-name="Z" unicode="Z" horiz-adv-x="596" 
d="M15 0l433 690h-223q-35 0 -64 -11t-51 -31t-35 -36t-27 -38h-4l52 126h473l-433 -690h257q34 0 64.5 13t54.5 37.5t36.5 40.5t28.5 41h4l-59 -142h-507z" />
    <glyph glyph-name="bracketleft" unicode="[" horiz-adv-x="153" 
d="M40 -16v732h108v-5q-58 0 -58 -61v-600q0 -61 58 -61v-5h-108z" />
    <glyph glyph-name="backslash" unicode="\" horiz-adv-x="325" 
d="M320 -53h-22l-293 803h21z" />
    <glyph glyph-name="bracketright" unicode="]" horiz-adv-x="153" 
d="M5 -11q58 0 58 61v600q0 61 -58 61v5h108v-732h-108v5z" />
    <glyph glyph-name="asciicircum" unicode="^" horiz-adv-x="220" 
d="M110 716q68 -57 77 -67q13 -14 13 -26q0 -13 -8.5 -22t-20.5 -9q-3 0 -6 0.5t-6 2l-5 2.5t-4 3.5t-3.5 4t-3.5 5t-2.5 4.5t-3 5t-2.5 5l-25 59l-25 -59q0 -1 -2.5 -5t-3 -5t-2.5 -4.5t-3.5 -5t-3.5 -4t-4 -3.5l-5 -2.5t-6 -2t-6 -0.5q-12 0 -20.5 9t-8.5 22q0 12 13 26
q9 10 77 67z" />
    <glyph glyph-name="underscore" unicode="_" horiz-adv-x="280" 
d="M260 20v-20h-240v20h240z" />
    <glyph glyph-name="a" unicode="a" horiz-adv-x="463" 
d="M311 351q0 85 -22.5 121.5t-84.5 36.5q-39 0 -62 -14t-21 -33q1 -10 10.5 -18.5t20.5 -14t20 -17.5t9 -30q0 -22 -15.5 -38t-36.5 -16q-36 0 -50 37q-21 54 17 102.5t116 48.5q86 0 138.5 -45.5t52.5 -129.5v-285q0 -33 35 -33v-3l-127 -36v53q-41 -53 -103 -53
q-79 0 -131 42.5t-52 113.5q0 65 41.5 107.5t91.5 42.5q38 0 61 -18v-3q-53 9 -76 -30t-23 -99q0 -32 7.5 -63.5t30.5 -58.5t58 -27q47 0 71 40t24 82v238z" />
    <glyph glyph-name="b" unicode="b" 
d="M167 177q0 -94 36.5 -140t89.5 -46q58 0 89.5 75.5t31.5 183.5q0 111 -30 185t-93 74q-51 0 -87.5 -40.5t-36.5 -116.5v-175zM40 659v3l127 54v-270q44 70 134 70q83 0 145.5 -78.5t62.5 -187.5t-62.5 -187.5t-145.5 -78.5q-46 0 -90.5 27t-64.5 27q-8 0 -15.5 -1.5
t-14 -4.5t-11 -5.5t-9.5 -7.5l-7 -7l-7 -7l-4 -5h-3v626q0 33 -35 33z" />
    <glyph glyph-name="c" unicode="c" horiz-adv-x="452" 
d="M431 123q-28 -64 -77.5 -101.5t-111.5 -37.5q-89 0 -153 78t-64 188q0 112 66.5 189t166.5 77q77 0 131 -60t41 -119q-3 -18 -17.5 -31t-33.5 -13q-22 0 -37.5 16t-15.5 38q0 21 20.5 45t20.5 40q0 33 -33.5 55t-75.5 22q-71 0 -104.5 -67t-33.5 -158q0 -121 48.5 -195
t113.5 -74q51 0 89 36t53 72h7z" />
    <glyph glyph-name="d" unicode="d" 
d="M367 352q0 76 -36.5 116.5t-87.5 40.5q-63 0 -93 -74t-30 -185q0 -108 31.5 -183.5t89.5 -75.5q53 0 89.5 46t36.5 140v175zM25 250q0 109 62.5 187.5t145.5 78.5q90 0 134 -70v180q0 33 -35 33v3l127 54v-716h-3q-1 1 -4 4.5t-5 5.5l-6 6t-7.5 6.5t-9 6t-10.5 5t-12 3
t-14 1.5q-20 0 -64.5 -27t-90.5 -27q-83 0 -145.5 78.5t-62.5 187.5z" />
    <glyph glyph-name="e" unicode="e" horiz-adv-x="478" 
d="M431 123q-28 -64 -77.5 -101.5t-111.5 -37.5q-89 0 -153 78t-64 188q0 112 66.5 189t168.5 77q84 0 141 -54t57 -118q0 -43 -33 -66t-80.5 -29t-95 -10.5t-81.5 -19t-35 -45.5q19 -74 60 -116.5t89 -42.5q51 0 89 36t53 72h7zM120 284q0 -51 9 -93q8 22 35 34.5t59.5 20
t64.5 18.5t53.5 38.5t21.5 70.5q0 52 -28 94t-75 42q-49 0 -82 -36t-45.5 -84t-12.5 -105z" />
    <glyph glyph-name="f" unicode="f" horiz-adv-x="418" 
d="M40 3q24 2 39.5 23.5t15.5 53.5v405h-50v15h50v17q0 90 48.5 144.5t130.5 54.5q76 0 116 -48t14 -103q-16 -31 -47 -31q-22 0 -37.5 16t-15.5 38q0 24 21.5 42.5t21.5 30.5q0 21 -23.5 34.5t-45.5 13.5q-26 0 -43.5 -9.5t-26.5 -22t-14 -37t-6 -43t-1 -50.5v-47h90v-15
h-90v-405q0 -32 15.5 -53.5t39.5 -23.5v-3h-202v3z" />
    <glyph glyph-name="g" unicode="g" 
d="M261 71q-58 0 -109 30q-33 15 -60 -0.5t-27 -45.5q0 -27 14.5 -41.5t45.5 -17t61.5 -1t82.5 5.5t89 4q69 0 109 -32t40 -94q0 -71 -57 -118t-179 -47q-66 0 -116 16.5t-74.5 41t-34 50.5t-3.5 48q4 17 18.5 29t33.5 12q21 0 36.5 -15.5t15.5 -36.5q0 -16 -7.5 -33
t-7.5 -26q0 -15 11.5 -31.5t47.5 -32t90 -15.5q71 0 124 33.5t53 85.5q0 24 -11 40t-26.5 23.5t-43 10t-49 1.5t-56.5 -2.5t-55 -1.5q-95 0 -143.5 30.5t-48.5 87.5q0 45 35 68t74 16q-42 32 -66 79t-24 101q0 93 63.5 158t153.5 65q72 0 129 -44q-8 39 16 78t65 39
q17 0 30 -13t13 -31q0 -19 -13 -32t-30 -13q-10 0 -18 4q-5 2 -12.5 6.5t-14 7.5t-12.5 3q-13 0 -17.5 -17.5t2.5 -39.5q78 -67 78 -171q0 -92 -63.5 -157t-152.5 -65zM139 293q0 -90 32 -152.5t90 -62.5t89.5 62.5t31.5 152.5q0 91 -31.5 153.5t-89.5 62.5t-90 -63
t-32 -153z" />
    <glyph glyph-name="h" unicode="h" horiz-adv-x="606" 
d="M374 3q24 2 39.5 23.5t15.5 53.5v298q0 131 -100 131q-59 0 -100.5 -39.5t-41.5 -112.5v-277q0 -32 15.5 -53.5t39.5 -23.5v-3h-202v3q24 2 39.5 23.5t15.5 53.5v546q0 33 -35 33v3l127 54v-267q51 67 146 67q83 0 135.5 -43t52.5 -126v-267q0 -32 15.5 -53.5t39.5 -23.5
v-3h-202v3z" />
    <glyph glyph-name="i" unicode="i" horiz-adv-x="282" 
d="M40 3q24 2 39.5 23.5t15.5 53.5v348q0 33 -35 33v3l127 36v-420q0 -32 15.5 -53.5t39.5 -23.5v-3h-202v3zM79 624q0 25 18.5 43t43.5 18t43 -18t18 -43q0 -26 -18 -44.5t-43 -18.5q-26 0 -44 18.5t-18 44.5z" />
    <glyph glyph-name="j" unicode="j" horiz-adv-x="356" 
d="M235 545q-26 0 -44 18.5t-18 44.5q0 25 18.5 43t43.5 18t43 -18t18 -43q0 -26 -18 -44.5t-43 -18.5zM15 -79l1 2q14 29 46 29q22 0 37.5 -16t15.5 -38q0 -24 -22.5 -43t-24.5 -32q-3 -20 14 -33t38 -13q23 0 38 12t21 38t8 49.5t2 62.5v489q0 33 -35 33v3l127 36v-531
q0 -94 -38.5 -146.5t-118.5 -52.5q-61 0 -97.5 49t-11.5 102z" />
    <glyph glyph-name="k" unicode="k" horiz-adv-x="532" 
d="M471 -16q-53 0 -87 34.5t-54 115.5q-17 71 -37.5 109t-54.5 41q-30 -19 -51 -40v-169q0 -30 16 -50t39 -22v-3h-202v3q24 2 39.5 23.5t15.5 53.5v546q0 33 -35 33v3l127 54v-463q19 18 79 56t77 65q11 16 20 47q12 37 8 55.5t-27 20.5v3h118v-3q-24 -3 -51 -20.5
t-38 -45.5q-19 -50 -24 -59q-19 -31 -93 -77q73 -1 109.5 -40t51.5 -105q5 -22 7 -30t9.5 -33t15 -37t19 -27.5t26.5 -20t33 -0.5v-2q-23 -16 -56 -16z" />
    <glyph glyph-name="l" unicode="l" horiz-adv-x="282" 
d="M40 3q24 2 39.5 23.5t15.5 53.5v546q0 33 -35 33v3l127 54v-636q0 -32 15.5 -53.5t39.5 -23.5v-3h-202v3z" />
    <glyph glyph-name="m" unicode="m" horiz-adv-x="878" 
d="M343 3q24 2 39.5 23.5t15.5 53.5v298q0 66 -18 98.5t-64 32.5q-48 0 -88.5 -40.5t-40.5 -111.5v-277q0 -32 15.5 -53.5t39.5 -23.5v-3h-202v3q24 2 39.5 23.5t15.5 53.5v348q0 33 -35 33v3l127 36v-51q23 31 59 49t74 18q101 0 143 -67q60 67 160 67q77 0 123.5 -42.5
t46.5 -126.5v-267q0 -32 15.5 -53.5t39.5 -23.5v-3h-202v3q24 2 39.5 23.5t15.5 53.5v298q0 66 -18 98.5t-64 32.5q-50 0 -96 -31t-41 -70q8 -29 8 -61v-267q0 -32 15.5 -53.5t39.5 -23.5v-3h-202v3z" />
    <glyph glyph-name="n" unicode="n" horiz-adv-x="606" 
d="M374 3q24 2 39.5 23.5t15.5 53.5v298q0 131 -100 131q-59 0 -100.5 -39.5t-41.5 -112.5v-277q0 -32 15.5 -53.5t39.5 -23.5v-3h-202v3q24 2 39.5 23.5t15.5 53.5v348q0 33 -35 33v3l127 36v-51q51 67 146 67q83 0 135.5 -43t52.5 -126v-267q0 -32 15.5 -53.5t39.5 -23.5
v-3h-202v3z" />
    <glyph glyph-name="o" unicode="o" horiz-adv-x="483" 
d="M242 -16q-89 0 -153 78t-64 188t64 188t153 78t152.5 -78t63.5 -188t-63.5 -188t-152.5 -78zM120 250q0 -108 32 -183.5t90 -75.5t89.5 75.5t31.5 183.5t-31.5 183.5t-89.5 75.5t-90 -75.5t-32 -183.5z" />
    <glyph glyph-name="p" unicode="p" horiz-adv-x="554" 
d="M40 -267q24 2 39.5 23.5t15.5 53.5v618q0 33 -35 33v3l127 36v-54q44 70 134 70q83 0 145.5 -78.5t62.5 -187.5t-62.5 -187.5t-145.5 -78.5q-90 0 -134 70v-244q0 -32 15.5 -53.5t39.5 -23.5v-3h-202v3zM187 148q0 -76 36.5 -116.5t87.5 -40.5q63 0 93 74t30 185t-30 185
t-93 74q-51 0 -87.5 -40.5t-36.5 -116.5v-204z" />
    <glyph glyph-name="q" unicode="q" 
d="M367 323q0 94 -36.5 140t-89.5 46q-58 0 -89.5 -75.5t-31.5 -183.5q0 -111 30 -185t93 -74q51 0 87.5 40.5t36.5 116.5v175zM25 250q0 109 62.5 187.5t145.5 78.5q46 0 90.5 -27t64.5 -27q8 0 15.5 1.5t14 4.5t11 5.5t9.5 7.5l7 7l7 7l4 5h3v-690q0 -32 15.5 -53.5
t39.5 -23.5v-3h-202v3q24 2 39.5 23.5t15.5 53.5v244q-44 -70 -134 -70q-83 0 -145.5 78.5t-62.5 187.5z" />
    <glyph glyph-name="r" unicode="r" horiz-adv-x="443" 
d="M300 509q-47 0 -80 -39.5t-33 -112.5v-277q0 -32 15.5 -53.5t39.5 -23.5v-3h-202v3q24 2 39.5 23.5t15.5 53.5v348q0 33 -35 33v3l127 36v-51q45 67 117 67q74 0 111.5 -46.5t13.5 -97.5q-16 -31 -47 -31q-22 0 -37.5 16t-15.5 38q0 23 21.5 42t21.5 31q0 41 -72 41z" />
    <glyph glyph-name="s" unicode="s" horiz-adv-x="424" 
d="M189 516q39 0 76.5 -13t60 -24.5t30.5 -9.5q12 3 12 22h2l4 -140h-2q-12 64 -60.5 111t-117.5 47q-50 0 -75 -24t-25 -58q0 -35 32 -65t77.5 -52.5t91 -45.5t77.5 -56t32 -72q0 -64 -48 -108t-141 -44q-37 0 -71.5 12t-57.5 23.5t-34 9.5q-18 -3 -20 -29h-2l-10 173h2
q8 -68 61 -125t127 -57q56 0 88.5 26t32.5 70q0 25 -22.5 47t-56 39t-73 38.5t-73 43.5t-56 56t-22.5 74q0 62 52 96.5t109 34.5z" />
    <glyph glyph-name="t" unicode="t" horiz-adv-x="263" 
d="M25 500h50v29q0 33 -35 33v3l127 54v-119h81v-15h-81v-431q0 -42 35 -55q24 -8 46 3v-2q-25 -16 -66 -16q-45 0 -76 25t-31 83v393h-50v15z" />
    <glyph glyph-name="u" unicode="u" horiz-adv-x="566" 
d="M399 431q0 16 -6 23t-26 8v2l124 36v-444q0 -33 35 -33v-3l-127 -36v67q-51 -67 -145 -67q-83 0 -136 43t-53 126v275q0 33 -35 33v3l127 36v-378q0 -131 101 -131q58 0 99.5 39.5t41.5 112.5v288z" />
    <glyph glyph-name="v" unicode="v" horiz-adv-x="536" 
d="M199 497q-30 -3 -33 -23t14 -53l139 -310l123 309q12 31 5.5 53t-28.5 24v3h112v-3q-23 -2 -46 -24t-36 -53l-167 -420h-7l-189 420q-33 72 -81 77v3h194v-3z" />
    <glyph glyph-name="w" unicode="w" horiz-adv-x="832" 
d="M199 497q-30 -3 -33 -23.5t14 -53.5l136 -303l137 383h7l155 -389l123 309q12 31 5.5 53t-28.5 24v3h112v-3q-23 -2 -46 -24t-36 -53l-167 -420h-7l-155 376l-134 -376h-7l-189 420q-33 72 -81 77v3h194v-3z" />
    <glyph glyph-name="x" unicode="x" horiz-adv-x="498" 
d="M218 497q-15 -1 -21 -11.5t-3 -27.5t15 -38l67 -118l85 118q20 28 21.5 51t-18.5 26v3h108v-3q-22 -2 -52 -24.5t-51 -52.5l-89 -125l122 -215q41 -72 91 -77v-3h-197v3q21 2 24 25.5t-14 51.5l-84 147l-106 -147q-20 -27 -21.5 -50.5t18.5 -26.5v-3h-108v3q50 5 102 77
l111 153l-107 187q-17 30 -43 52.5t-47 24.5v3h197v-3z" />
    <glyph glyph-name="y" unicode="y" horiz-adv-x="556" 
d="M104 -125q22 0 37.5 -16t15.5 -39q0 -29 -32 -46q-6 -3 -16.5 -6.5t-15.5 -6.5t-5 -7q0 -11 10.5 -22t29.5 -11q57 0 87 78l80 201h-20l-189 420q-33 72 -81 77v3h194v-3q-23 -2 -28.5 -23t9.5 -54l150 -332l131 332q12 30 5.5 52.5t-28.5 24.5v3h113v-3
q-22 -2 -46 -24.5t-36 -52.5l-246 -621q-34 -85 -95 -85q-40 0 -63.5 42.5t-10.5 79.5q5 17 19 28t31 11z" />
    <glyph glyph-name="z" unicode="z" horiz-adv-x="466" 
d="M448 500l-325 -493h142q60 0 108.5 43.5t74.5 92.5h3l-68 -143h-368l325 493h-137q-36 0 -67.5 -19.5t-47.5 -39t-35 -47.5q-3 -6 -5 -8h-3l54 121h349z" />
    <glyph glyph-name="braceleft" unicode="{" horiz-adv-x="248" 
d="M5 349q47 0 65.5 53t18.5 159q0 105 38 143.5t116 38.5v-4q-15 0 -26.5 -9t-18 -24.5t-10.5 -35.5t-5 -41.5l-2 -43t0 -39.5v-18q0 -72 -33 -121.5t-92 -59.5q59 -10 92 -59.5t33 -121.5q0 -113 9 -150q14 -61 53 -61v-4q-78 0 -116 38.5t-38 143.5q0 106 -18.5 159
t-65.5 53v4z" />
    <glyph glyph-name="bar" unicode="|" horiz-adv-x="101" 
d="M41 750h20l-1 -803h-20z" />
    <glyph glyph-name="braceright" unicode="}" horiz-adv-x="248" 
d="M243 345q-47 0 -65.5 -53t-18.5 -159q0 -105 -38 -143.5t-116 -38.5v4q15 0 26.5 9t18 24.5t10.5 35.5t5 41.5l2 43t0 39.5v18q0 72 33 121.5t92 59.5q-59 10 -92 59.5t-33 121.5q0 113 -9 150q-14 61 -53 61v4q78 0 116 -38.5t38 -143.5q0 -106 18.5 -159t65.5 -53v-4z
" />
    <glyph glyph-name="asciitilde" unicode="~" horiz-adv-x="302" 
d="M20 285q0 40 23.5 61t46.5 21q30 0 73 -23t59 -23q37 0 57 32h3q0 -36 -19.5 -58.5t-50.5 -22.5q-30 0 -74 23.5t-59 23.5q-36 0 -56 -34h-3z" />
    <glyph glyph-name="exclamdown" unicode="&#xa1;" horiz-adv-x="191" 
d="M97 537q0 -29 27 -244t27 -244q0 -65 -53 -65q-52 0 -52 65q0 29 22 244t22 244h7zM40 662q0 22 15.5 38t37.5 16q21 0 36.5 -16t15.5 -38q0 -21 -15.5 -36.5t-36.5 -15.5q-22 0 -37.5 15.5t-15.5 36.5z" />
    <glyph glyph-name="cent" unicode="&#xa2;" horiz-adv-x="452" 
d="M431 221q-28 -64 -77.5 -101.5t-111.5 -37.5h-4v-83h-20v85q-81 11 -137 86.5t-56 177.5q0 99 54 172.5t139 89.5v90h20v-87l20 1q76 0 130.5 -60.5t41.5 -118.5q-1 -5 -5 -15q-15 -29 -46 -29q-22 0 -37.5 16t-15.5 38q0 21 20.5 45t20.5 40q0 33 -33.5 55t-75.5 22
q-8 0 -20 -2v-482q20 -10 44 -10q51 0 89 36t53 72h7zM120 382q0 -88 27.5 -153t70.5 -95v466q-51 -19 -74.5 -80.5t-23.5 -137.5z" />
    <glyph glyph-name="sterling" unicode="&#xa3;" horiz-adv-x="428" 
d="M335 476q-26 0 -44.5 19t-18.5 45q0 24 16 40.5t31.5 28t15.5 21.5q0 27 -35 51.5t-81 24.5q-48 0 -66.5 -26.5t-18.5 -80.5q0 -35 14 -175h172v-20h-170q5 -63 4 -110h166v-20h-167q-7 -96 -47 -174h191q67 0 102 49h4l-62 -149h-316q109 122 82 274h-81v20h77
q-8 38 -32 110h-45v20h39q-22 75 -22 118q0 85 57 129.5t119 44.5q46 0 82.5 -16.5t57 -42t31.5 -54.5t9.5 -55.5t-12.5 -42.5q-19 -29 -52 -29z" />
    <glyph glyph-name="currency" unicode="&#xa4;" horiz-adv-x="367" 
d="M184 130q-61 0 -105 41l-38 -39l-14 14l38 39q-40 45 -40 107q0 58 40 103l-38 37l14 14l38 -37q46 39 105 39q60 0 105 -40l38 38l14 -14l-38 -38q39 -44 39 -102q0 -61 -40 -107l39 -39l-14 -14l-39 39q-46 -41 -104 -41zM64 292q0 -51 35.5 -86.5t84.5 -35.5
q48 0 83.5 35.5t35.5 86.5q0 47 -35.5 81.5t-83.5 34.5q-49 0 -84.5 -34.5t-35.5 -81.5z" />
    <glyph glyph-name="yen" unicode="&#xa5;" horiz-adv-x="682" 
d="M194 261v20h97l-190 335q-18 31 -46 54.5t-50 25.5v4h206v-4q-21 -2 -23.5 -27.5t13.5 -52.5l185 -326l185 326q17 29 14 53.5t-24 26.5v4h116v-4q-22 -2 -49.5 -25.5t-45.5 -54.5l-191 -335h97v-20h-97v-90h97v-20h-97v-67q0 -33 17 -55.5t41 -24.5v-4h-216v4
q24 2 41 24.5t17 55.5v67h-97v20h97v90h-97z" />
    <glyph glyph-name="brokenbar" unicode="&#xa6;" horiz-adv-x="70" 
d="M25 440v310h20v-310h-20zM25 -53v310h20v-310h-20z" />
    <glyph glyph-name="section" unicode="&#xa7;" horiz-adv-x="522" 
d="M22 173q8 -68 61 -125t127 -57q56 0 88.5 26t32.5 70q0 25 -22.5 47t-56 39t-73 38.5t-73 43.5t-56 56t-22.5 74q0 52 37.5 85t87.5 42q-27 37 -27 82q0 62 52 96.5t109 34.5q39 0 76.5 -13t60 -24.5t30.5 -9.5q12 3 12 22h2l4 -140h-2q-12 64 -60.5 111t-117.5 47
q-50 0 -75 -24t-25 -58q0 -35 32 -65t77.5 -52.5t91 -45.5t77.5 -56t32 -72q0 -50 -31 -90t-92 -55q25 -28 25 -64q0 -64 -48 -108t-141 -44q-37 0 -71.5 12t-57.5 23.5t-34 9.5q-18 -3 -20 -29h-2l-10 173h2zM94 427q0 -35 32.5 -65.5t74.5 -50t93 -47t76 -53.5
q59 23 59 85q0 29 -31.5 55t-73 45t-90.5 48.5t-75 60.5q-33 -8 -49 -29.5t-16 -48.5z" />
    <glyph glyph-name="copyright" unicode="&#xa9;" horiz-adv-x="720" 
d="M361 -16q-139 0 -237.5 107.5t-98.5 257.5q0 152 98.5 259.5t237.5 107.5q137 0 235.5 -108t98.5 -259q0 -150 -98.5 -257.5t-235.5 -107.5zM45 349q0 -142 92.5 -243.5t223.5 -101.5q129 0 221.5 101.5t92.5 243.5q0 144 -92.5 245.5t-221.5 101.5q-131 0 -223.5 -101.5
t-92.5 -245.5zM232 350q0 70 41.5 118.5t104.5 48.5q47 0 81 -36t28 -72q-1 -13 -10.5 -22.5t-22.5 -9.5q-14 0 -23.5 10t-9.5 24t13 27.5t13 21.5q0 18 -22 34t-47 16q-74 0 -74 -139q0 -77 25 -123t64 -46q29 0 54 23t33 45h7q-18 -40 -49 -63.5t-70 -23.5q-56 0 -96 49
t-40 118z" />
    <glyph glyph-name="guillemotleft" unicode="&#xab;" horiz-adv-x="387" 
d="M221 415l-185 -155l185 -155v-26l-216 181l216 181v-26zM166 260l216 181v-26l-185 -155l185 -155v-26z" />
    <glyph glyph-name="registered" unicode="&#xae;" horiz-adv-x="720" 
d="M361 -16q-139 0 -237.5 107.5t-98.5 257.5q0 152 98.5 259.5t237.5 107.5q137 0 235.5 -108t98.5 -259q0 -150 -98.5 -257.5t-235.5 -107.5zM45 349q0 -142 92.5 -243.5t223.5 -101.5q129 0 221.5 101.5t92.5 243.5q0 144 -92.5 245.5t-221.5 101.5q-131 0 -223.5 -101.5
t-92.5 -245.5zM245 206v1q23 4 23 32v212q0 13 -7 22t-16 10v2h86q130 0 130 -86q0 -63 -73 -80q23 -5 37.5 -24.5t19 -39t17 -33.5t32.5 -11v-1q-9 -11 -35 -11t-40.5 18t-18 40t-12.5 40t-25 18q-20 -2 -32 -2h-23v-74q0 -28 23 -32v-1h-86zM308 317h21q90 0 90 82t-90 82
h-21v-164z" />
    <glyph glyph-name="degree" unicode="&#xb0;" horiz-adv-x="159" 
d="M79 696q-16 0 -27.5 -12t-11.5 -29q0 -16 11.5 -27.5t27.5 -11.5t28 11.5t12 27.5q0 17 -11.5 29t-28.5 12zM20 655q0 26 17.5 43.5t41.5 17.5q25 0 42.5 -17.5t17.5 -43.5q0 -25 -18 -42t-42 -17t-41.5 17t-17.5 42z" />
    <glyph glyph-name="periodcentered" unicode="&#xb7;" horiz-adv-x="145" 
d="M73 290q-22 0 -37.5 16t-15.5 38q0 21 15.5 36.5t37.5 15.5q21 0 36.5 -15.5t15.5 -36.5q0 -22 -15.5 -38t-36.5 -16z" />
    <glyph glyph-name="guillemotright" unicode="&#xbb;" horiz-adv-x="387" 
d="M166 415v26l216 -181l-216 -181v26l185 155zM5 79v26l185 155l-185 155v26l216 -181z" />
    <glyph glyph-name="questiondown" unicode="&#xbf;" horiz-adv-x="386" 
d="M307 224q33 0 52 -29q11 -16 12.5 -42.5t-9.5 -55.5t-31.5 -54.5t-57 -42t-82.5 -16.5q-66 0 -121 44t-55 130q0 45 24 83.5t56 67.5t62 62t45 83.5t3 116.5h10q20 -56 6 -122.5t-38.5 -115.5t-48 -105.5t-23.5 -92.5q0 -141 91 -141q41 0 73 21t32 40q0 15 -15.5 31
t-31.5 34t-16 40q0 26 18.5 45t44.5 19zM156 662q0 22 15.5 38t36.5 16q22 0 37.5 -16t15.5 -38q0 -21 -15.5 -36.5t-37.5 -15.5q-21 0 -36.5 15.5t-15.5 36.5z" />
    <glyph glyph-name="Agrave" unicode="&#xc0;" horiz-adv-x="687" 
d="M5 4q24 2 49.5 24t38.5 56l230 616h25l244 -616q30 -74 90 -80v-4h-219v4q22 2 29.5 21.5t-5.5 57.5l-61 154h-266l-57 -153q-11 -30 -3.5 -54t29.5 -26v-4h-124v4zM164 247h258l-133 336zM246 842q-7 17 -1.5 33t21.5 23q16 8 32.5 3t23.5 -21q4 -9 13 -33t15 -37
t18.5 -26t27.5 -15q-28 -12 -79.5 10.5t-70.5 62.5z" />
    <glyph glyph-name="Aacute" unicode="&#xc1;" horiz-adv-x="687" 
d="M5 4q24 2 49.5 24t38.5 56l230 616h25l244 -616q30 -74 90 -80v-4h-219v4q22 2 29.5 21.5t-5.5 57.5l-61 154h-266l-57 -153q-11 -30 -3.5 -54t29.5 -26v-4h-124v4zM164 247h258l-133 336zM252 769q15 2 27.5 15t18.5 26t15 37t13 33q7 16 23.5 21t32.5 -3
q16 -7 21.5 -23t-1.5 -33q-19 -40 -70.5 -62.5t-79.5 -10.5z" />
    <glyph glyph-name="Acircumflex" unicode="&#xc2;" horiz-adv-x="687" 
d="M5 4q24 2 49.5 24t38.5 56l230 616h25l244 -616q30 -74 90 -80v-4h-219v4q22 2 29.5 21.5t-5.5 57.5l-61 154h-266l-57 -153q-11 -30 -3.5 -54t29.5 -26v-4h-124v4zM164 247h258l-133 336zM233 792q0 16 15 31q10 10 90 79q80 -69 90 -79q15 -15 15 -31q0 -14 -10 -24.5
t-24 -10.5q-25 0 -41 37l-30 70l-30 -70q-16 -37 -41 -37q-14 0 -24 10.5t-10 24.5z" />
    <glyph glyph-name="Atilde" unicode="&#xc3;" horiz-adv-x="687" 
d="M5 4q24 2 49.5 24t38.5 56l230 616h25l244 -616q30 -74 90 -80v-4h-219v4q22 2 29.5 21.5t-5.5 57.5l-61 154h-266l-57 -153q-11 -30 -3.5 -54t29.5 -26v-4h-124v4zM164 247h258l-133 336zM236 783q0 43 14.5 65.5t39.5 22.5q26 0 56 -18t47 -18q30 0 43 27h3
q0 -36 -16 -59t-40 -23t-56.5 17t-46.5 17q-29 0 -41 -31h-3z" />
    <glyph glyph-name="Adieresis" unicode="&#xc4;" horiz-adv-x="687" 
d="M5 4q24 2 49.5 24t38.5 56l230 616h25l244 -616q30 -74 90 -80v-4h-219v4q22 2 29.5 21.5t-5.5 57.5l-61 154h-266l-57 -153q-11 -30 -3.5 -54t29.5 -26v-4h-124v4zM164 247h258l-133 336zM190 824q0 25 18.5 43t43.5 18t43 -18t18 -43q0 -26 -18 -44.5t-43 -18.5
q-26 0 -44 18.5t-18 44.5zM343 824q0 25 18.5 43t43.5 18t43 -18t18 -43q0 -26 -18 -44.5t-43 -18.5q-26 0 -44 18.5t-18 44.5z" />
    <glyph glyph-name="Aring" unicode="&#xc5;" horiz-adv-x="687" 
d="M5 4q24 2 49.5 24t38.5 56l230 616h25l244 -616q30 -74 90 -80v-4h-219v4q22 2 29.5 21.5t-5.5 57.5l-61 154h-266l-57 -153q-11 -30 -3.5 -54t29.5 -26v-4h-124v4zM164 247h258l-133 336zM270 827q0 30 20 49.5t47 19.5q28 0 48 -19.5t20 -49.5q0 -29 -20 -48t-48 -19
q-27 0 -47 19t-20 48zM300 827q0 -15 11 -26t26 -11q16 0 27 11t11 26q0 16 -11 27.5t-27 11.5q-15 0 -26 -11.5t-11 -27.5z" />
    <glyph glyph-name="AE" unicode="&#xc6;" horiz-adv-x="1034" 
d="M5 4q24 2 50 25t38 55l230 616h25l172 -435v351q0 33 -17 55.5t-41 24.5v4h486l52 -126h-4q-14 22 -27 38t-35 36t-51 31t-64 11h-199v-341h117q33 0 55.5 17t24.5 41h4v-126h-4q-2 24 -24.5 41t-55.5 17h-117v-326l1 -3h220q34 0 64.5 13t54.5 37.5t36.5 40.5t28.5 41h4
l-59 -142h-507v4q54 6 24 80l-61 153h-266l-57 -153q-11 -30 -3.5 -54t29.5 -26v-4h-124v4zM164 247h258l-133 336z" />
    <glyph glyph-name="Ccedilla" unicode="&#xc7;" horiz-adv-x="658" 
d="M363 706q-76 0 -131 -52.5t-78.5 -122t-23.5 -141.5q0 -95 26 -168.5t68 -114t87.5 -60t90.5 -19.5q48 0 91 19.5t69.5 47t41.5 48t19 31.5h10q-4 -11 -12 -26.5t-30.5 -46.5t-51 -55t-75.5 -43t-101 -19h-18l-6 -33q19 7 31 7q20 0 36 -10.5t16 -36.5q0 -22 -17 -37
t-49 -15q-26 0 -39 12.5t-13 25.5q0 9 7 16t17 7q8 0 14.5 -7t6.5 -16q0 -5 -1.5 -11.5t-1.5 -9.5q0 -10 13 -10q15 0 21.5 16t6.5 33q0 36 -22 36q-9 0 -27 -8h-10l7 42q-136 10 -223 114t-87 250q0 150 102 258.5t236 108.5q42 0 85.5 -11t76.5 -24.5t42 -14.5
q13 -2 20.5 6.5t11.5 27.5h4l13 -249h-4q-67 255 -249 255z" />
    <glyph glyph-name="Egrave" unicode="&#xc8;" horiz-adv-x="612" 
d="M419 10q34 0 64.5 13t54.5 37.5t36.5 40.5t28.5 41h4l-59 -142h-508v4q24 2 41 24.5t17 55.5v532q0 33 -17 55.5t-41 24.5v4h486l52 -126h-4q-14 22 -27 38t-35 36t-51 31t-64 11h-199v-341h117q33 0 55.5 17t24.5 41h4v-126h-4q-2 24 -24.5 41t-55.5 17h-117v-329h221z
M214 842q-7 17 -1.5 33t21.5 23q16 8 32.5 3t23.5 -21q4 -9 13 -33t15 -37t18.5 -26t27.5 -15q-28 -12 -79.5 10.5t-70.5 62.5z" />
    <glyph glyph-name="Eacute" unicode="&#xc9;" horiz-adv-x="612" 
d="M419 10q34 0 64.5 13t54.5 37.5t36.5 40.5t28.5 41h4l-59 -142h-508v4q24 2 41 24.5t17 55.5v532q0 33 -17 55.5t-41 24.5v4h486l52 -126h-4q-14 22 -27 38t-35 36t-51 31t-64 11h-199v-341h117q33 0 55.5 17t24.5 41h4v-126h-4q-2 24 -24.5 41t-55.5 17h-117v-329h221z
M220 769q15 2 27.5 15t18.5 26t15 37t13 33q7 16 23.5 21t32.5 -3q16 -7 21.5 -23t-1.5 -33q-19 -40 -70.5 -62.5t-79.5 -10.5z" />
    <glyph glyph-name="Ecircumflex" unicode="&#xca;" horiz-adv-x="612" 
d="M419 10q34 0 64.5 13t54.5 37.5t36.5 40.5t28.5 41h4l-59 -142h-508v4q24 2 41 24.5t17 55.5v532q0 33 -17 55.5t-41 24.5v4h486l52 -126h-4q-14 22 -27 38t-35 36t-51 31t-64 11h-199v-341h117q33 0 55.5 17t24.5 41h4v-126h-4q-2 24 -24.5 41t-55.5 17h-117v-329h221z
M201 792q0 16 15 31q10 10 90 79q80 -69 90 -79q15 -15 15 -31q0 -14 -10 -24.5t-24 -10.5q-25 0 -41 37l-30 70l-30 -70q-16 -37 -41 -37q-14 0 -24 10.5t-10 24.5z" />
    <glyph glyph-name="Edieresis" unicode="&#xcb;" horiz-adv-x="612" 
d="M419 10q34 0 64.5 13t54.5 37.5t36.5 40.5t28.5 41h4l-59 -142h-508v4q24 2 41 24.5t17 55.5v532q0 33 -17 55.5t-41 24.5v4h486l52 -126h-4q-14 22 -27 38t-35 36t-51 31t-64 11h-199v-341h117q33 0 55.5 17t24.5 41h4v-126h-4q-2 24 -24.5 41t-55.5 17h-117v-329h221z
M158 824q0 25 18.5 43t43.5 18t43 -18t18 -43q0 -26 -18 -44.5t-43 -18.5q-26 0 -44 18.5t-18 44.5zM311 824q0 25 18.5 43t43.5 18t43 -18t18 -43q0 -26 -18 -44.5t-43 -18.5q-26 0 -44 18.5t-18 44.5z" />
    <glyph glyph-name="Igrave" unicode="&#xcc;" horiz-adv-x="296" 
d="M40 4q24 2 41 24.5t17 55.5v532q0 33 -17 55.5t-41 24.5v4h216v-4q-24 -2 -41 -24.5t-17 -55.5v-532q0 -33 17 -55.5t41 -24.5v-4h-216v4zM56 842q-7 17 -1.5 33t21.5 23q16 8 32.5 3t23.5 -21q4 -9 13 -33t15 -37t18.5 -26t27.5 -15q-28 -12 -79.5 10.5t-70.5 62.5z" />
    <glyph glyph-name="Iacute" unicode="&#xcd;" horiz-adv-x="296" 
d="M40 4q24 2 41 24.5t17 55.5v532q0 33 -17 55.5t-41 24.5v4h216v-4q-24 -2 -41 -24.5t-17 -55.5v-532q0 -33 17 -55.5t41 -24.5v-4h-216v4zM62 769q15 2 27.5 15t18.5 26t15 37t13 33q7 16 23.5 21t32.5 -3q16 -7 21.5 -23t-1.5 -33q-19 -40 -70.5 -62.5t-79.5 -10.5z" />
    <glyph glyph-name="Icircumflex" unicode="&#xce;" horiz-adv-x="296" 
d="M40 4q24 2 41 24.5t17 55.5v532q0 33 -17 55.5t-41 24.5v4h216v-4q-24 -2 -41 -24.5t-17 -55.5v-532q0 -33 17 -55.5t41 -24.5v-4h-216v4zM43 792q0 16 15 31q10 10 90 79q80 -69 90 -79q15 -15 15 -31q0 -14 -10 -24.5t-24 -10.5q-25 0 -41 37l-30 70l-30 -70
q-16 -37 -41 -37q-14 0 -24 10.5t-10 24.5z" />
    <glyph glyph-name="Idieresis" unicode="&#xcf;" horiz-adv-x="296" 
d="M40 4q24 2 41 24.5t17 55.5v532q0 33 -17 55.5t-41 24.5v4h216v-4q-24 -2 -41 -24.5t-17 -55.5v-532q0 -33 17 -55.5t41 -24.5v-4h-216v4zM0 824q0 25 18.5 43t43.5 18t43 -18t18 -43q0 -26 -18 -44.5t-43 -18.5q-26 0 -44 18.5t-18 44.5zM153 824q0 25 18.5 43t43.5 18
t43 -18t18 -43q0 -26 -18 -44.5t-43 -18.5q-26 0 -44 18.5t-18 44.5z" />
    <glyph glyph-name="Eth" unicode="&#xd0;" horiz-adv-x="697" 
d="M567 350q0 66 -17.5 124t-54.5 108t-102 79t-152 29h-43v-330h146v-20h-146v-330h43q87 0 152 29t102 79t54.5 108t17.5 124zM40 0v4q24 2 41 24.5t17 55.5v256h-58v20h58v256q0 33 -17 55.5t-41 24.5v4h201q209 0 320 -96.5t111 -253.5t-111 -253.5t-320 -96.5h-201z
" />
    <glyph glyph-name="Ntilde" unicode="&#xd1;" horiz-adv-x="703" 
d="M663 696q-24 -2 -41 -24.5t-17 -55.5v-616h-10l-488 634v-550q0 -33 16.5 -55.5t40.5 -24.5v-4h-124v4q24 2 40.5 24.5t16.5 55.5v532q0 33 -16.5 55.5t-40.5 24.5v4h136l419 -545v461q0 33 -16.5 55.5t-40.5 24.5v4h125v-4zM250 783q0 43 14.5 65.5t39.5 22.5
q26 0 56 -18t47 -18q30 0 43 27h3q0 -36 -16 -59t-40 -23t-56.5 17t-46.5 17q-29 0 -41 -31h-3z" />
    <glyph glyph-name="Ograve" unicode="&#xd2;" horiz-adv-x="674" 
d="M339 -16q-131 0 -222.5 107t-91.5 258q0 153 91.5 260t222.5 107q128 0 219 -107.5t91 -259.5q0 -151 -91 -258t-219 -107zM130 349q0 -147 60.5 -251t147.5 -104q85 0 145.5 104t60.5 251q0 148 -60.5 252.5t-145.5 104.5q-87 0 -147.5 -104.5t-60.5 -252.5zM247 842
q-7 17 -1.5 33t21.5 23q16 8 32.5 3t23.5 -21q4 -9 13 -33t15 -37t18.5 -26t27.5 -15q-28 -12 -79.5 10.5t-70.5 62.5z" />
    <glyph glyph-name="Oacute" unicode="&#xd3;" horiz-adv-x="674" 
d="M339 -16q-131 0 -222.5 107t-91.5 258q0 153 91.5 260t222.5 107q128 0 219 -107.5t91 -259.5q0 -151 -91 -258t-219 -107zM130 349q0 -147 60.5 -251t147.5 -104q85 0 145.5 104t60.5 251q0 148 -60.5 252.5t-145.5 104.5q-87 0 -147.5 -104.5t-60.5 -252.5zM253 769
q15 2 27.5 15t18.5 26t15 37t13 33q7 16 23.5 21t32.5 -3q16 -7 21.5 -23t-1.5 -33q-19 -40 -70.5 -62.5t-79.5 -10.5z" />
    <glyph glyph-name="Ocircumflex" unicode="&#xd4;" horiz-adv-x="674" 
d="M339 -16q-131 0 -222.5 107t-91.5 258q0 153 91.5 260t222.5 107q128 0 219 -107.5t91 -259.5q0 -151 -91 -258t-219 -107zM130 349q0 -147 60.5 -251t147.5 -104q85 0 145.5 104t60.5 251q0 148 -60.5 252.5t-145.5 104.5q-87 0 -147.5 -104.5t-60.5 -252.5zM234 792
q0 16 15 31q10 10 90 79q80 -69 90 -79q15 -15 15 -31q0 -14 -10 -24.5t-24 -10.5q-25 0 -41 37l-30 70l-30 -70q-16 -37 -41 -37q-14 0 -24 10.5t-10 24.5z" />
    <glyph glyph-name="Otilde" unicode="&#xd5;" horiz-adv-x="674" 
d="M339 -16q-131 0 -222.5 107t-91.5 258q0 153 91.5 260t222.5 107q128 0 219 -107.5t91 -259.5q0 -151 -91 -258t-219 -107zM130 349q0 -147 60.5 -251t147.5 -104q85 0 145.5 104t60.5 251q0 148 -60.5 252.5t-145.5 104.5q-87 0 -147.5 -104.5t-60.5 -252.5zM237 783
q0 43 14.5 65.5t39.5 22.5t56 -18t47 -18q30 0 43 27h3q0 -36 -16 -59t-40 -23t-56.5 17t-46.5 17q-29 0 -41 -31h-3z" />
    <glyph glyph-name="Odieresis" unicode="&#xd6;" horiz-adv-x="674" 
d="M339 -16q-131 0 -222.5 107t-91.5 258q0 153 91.5 260t222.5 107q128 0 219 -107.5t91 -259.5q0 -151 -91 -258t-219 -107zM130 349q0 -147 60.5 -251t147.5 -104q85 0 145.5 104t60.5 251q0 148 -60.5 252.5t-145.5 104.5q-87 0 -147.5 -104.5t-60.5 -252.5zM191 824
q0 25 18.5 43t43.5 18t43 -18t18 -43q0 -26 -18 -44.5t-43 -18.5q-26 0 -44 18.5t-18 44.5zM344 824q0 25 18.5 43t43.5 18t43 -18t18 -43q0 -26 -18 -44.5t-43 -18.5q-26 0 -44 18.5t-18 44.5z" />
    <glyph glyph-name="multiply" unicode="&#xd7;" horiz-adv-x="230" 
d="M210 232l-14 -14l-81 81l-81 -81l-14 14l81 81l-81 81l14 14l81 -81l81 81l14 -14l-81 -81z" />
    <glyph glyph-name="Oslash" unicode="&#xd8;" horiz-adv-x="674" 
d="M339 -18q-60 0 -115 25l-22 -60h-22l25 69q-81 45 -130.5 134.5t-49.5 197.5q0 153 91.5 260t222.5 107q58 0 113 -25l22 60h21l-25 -69q81 -44 130 -134t49 -199q0 -151 -91 -258.5t-219 -107.5zM130 348q0 -90 24 -167t66 -126l220 603q-47 47 -102 47
q-87 0 -147.5 -104.5t-60.5 -252.5zM235 38q48 -46 103 -46q85 0 145.5 104.5t60.5 251.5q0 90 -24 167t-65 126z" />
    <glyph glyph-name="Ugrave" unicode="&#xd9;" horiz-adv-x="731" 
d="M187 246q0 -252 200 -252q109 0 178 64.5t69 164.5v393q0 33 -16.5 55.5t-40.5 24.5v4h124v-4q-24 -2 -40.5 -24.5t-16.5 -55.5v-393q0 -105 -72 -172t-185 -67q-57 0 -105.5 13t-94.5 43.5t-73 91.5t-27 147v337q0 33 -16.5 55.5t-40.5 24.5v4h214v-4
q-24 -2 -40.5 -24.5t-16.5 -55.5v-370zM313 842q-7 17 -1.5 33t21.5 23q16 8 32.5 3t23.5 -21q4 -9 13 -33t15 -37t18.5 -26t27.5 -15q-28 -12 -79.5 10.5t-70.5 62.5z" />
    <glyph glyph-name="Uacute" unicode="&#xda;" horiz-adv-x="731" 
d="M187 246q0 -252 200 -252q109 0 178 64.5t69 164.5v393q0 33 -16.5 55.5t-40.5 24.5v4h124v-4q-24 -2 -40.5 -24.5t-16.5 -55.5v-393q0 -105 -72 -172t-185 -67q-57 0 -105.5 13t-94.5 43.5t-73 91.5t-27 147v337q0 33 -16.5 55.5t-40.5 24.5v4h214v-4
q-24 -2 -40.5 -24.5t-16.5 -55.5v-370zM319 769q15 2 27.5 15t18.5 26t15 37t13 33q7 16 23.5 21t32.5 -3q16 -7 21.5 -23t-1.5 -33q-19 -40 -70.5 -62.5t-79.5 -10.5z" />
    <glyph glyph-name="Ucircumflex" unicode="&#xdb;" horiz-adv-x="731" 
d="M187 246q0 -252 200 -252q109 0 178 64.5t69 164.5v393q0 33 -16.5 55.5t-40.5 24.5v4h124v-4q-24 -2 -40.5 -24.5t-16.5 -55.5v-393q0 -105 -72 -172t-185 -67q-57 0 -105.5 13t-94.5 43.5t-73 91.5t-27 147v337q0 33 -16.5 55.5t-40.5 24.5v4h214v-4
q-24 -2 -40.5 -24.5t-16.5 -55.5v-370zM300 792q0 16 15 31q10 10 90 79q80 -69 90 -79q15 -15 15 -31q0 -14 -10 -24.5t-24 -10.5q-25 0 -41 37l-30 70l-30 -70q-16 -37 -41 -37q-14 0 -24 10.5t-10 24.5z" />
    <glyph glyph-name="Udieresis" unicode="&#xdc;" horiz-adv-x="731" 
d="M187 246q0 -252 200 -252q109 0 178 64.5t69 164.5v393q0 33 -16.5 55.5t-40.5 24.5v4h124v-4q-24 -2 -40.5 -24.5t-16.5 -55.5v-393q0 -105 -72 -172t-185 -67q-57 0 -105.5 13t-94.5 43.5t-73 91.5t-27 147v337q0 33 -16.5 55.5t-40.5 24.5v4h214v-4
q-24 -2 -40.5 -24.5t-16.5 -55.5v-370zM257 824q0 25 18.5 43t43.5 18t43 -18t18 -43q0 -26 -18 -44.5t-43 -18.5q-26 0 -44 18.5t-18 44.5zM410 824q0 25 18.5 43t43.5 18t43 -18t18 -43q0 -26 -18 -44.5t-43 -18.5q-26 0 -44 18.5t-18 44.5z" />
    <glyph glyph-name="Yacute" unicode="&#xdd;" horiz-adv-x="682" 
d="M233 4q24 2 41 24.5t17 55.5v197l-190 335q-18 31 -46 54.5t-50 25.5v4h206v-4q-21 -2 -23.5 -27.5t13.5 -52.5l185 -326l185 326q17 29 14 53.5t-24 26.5v4h116v-4q-22 -2 -49.5 -25.5t-45.5 -54.5l-191 -335v-197q0 -33 17 -55.5t41 -24.5v-4h-216v4zM298 770
q15 2 27.5 15t18.5 26t15 37t13 33q7 16 23.5 21t32.5 -3q16 -7 21.5 -23t-1.5 -33q-19 -40 -70.5 -62.5t-79.5 -10.5z" />
    <glyph glyph-name="Thorn" unicode="&#xde;" horiz-adv-x="528" 
d="M40 4q24 2 41 24.5t17 55.5v532q0 33 -17 55.5t-41 24.5v4h216v-4q-24 -2 -41 -24.5t-17 -55.5v-45h66q92 0 165.5 -64.5t73.5 -156.5t-73.5 -156.5t-165.5 -64.5h-66v-45q0 -33 17 -55.5t41 -24.5v-4h-216v4zM198 139h66q60 0 97 61t37 150t-37 150t-97 61h-66v-422z
" />
    <glyph glyph-name="germandbls" unicode="&#xdf;" horiz-adv-x="622" 
d="M40 3q24 2 39.5 23.5t15.5 53.5v343q0 64 15 114.5t37.5 80t53.5 49t60 26.5t59 7q101 0 161 -47.5t60 -118.5q0 -58 -50 -102t-139 -59q74 -3 125.5 -19t85.5 -58t34 -109q0 -52 -22.5 -89.5t-64.5 -57.5t-91 -29t-113 -11h-266v3zM187 7h90q94 0 159.5 45.5t65.5 134.5
t-65.5 134.5t-159.5 45.5h-5v4q82 0 125.5 46t43.5 117q0 70 -31.5 114.5t-89.5 44.5q-27 0 -47 -8t-41.5 -33.5t-33 -83t-11.5 -145.5v-416z" />
    <glyph glyph-name="agrave" unicode="&#xe0;" horiz-adv-x="463" 
d="M311 351q0 85 -22.5 121.5t-84.5 36.5q-39 0 -62 -14t-21 -33q1 -10 10.5 -18.5t20.5 -14t20 -17.5t9 -30q0 -22 -15.5 -38t-36.5 -16q-36 0 -50 37q-21 54 17 102.5t116 48.5q86 0 138.5 -45.5t52.5 -129.5v-285q0 -33 35 -33v-3l-127 -36v53q-41 -53 -103 -53
q-79 0 -131 42.5t-52 113.5q0 65 41.5 107.5t91.5 42.5q38 0 61 -18v-3q-53 9 -76 -30t-23 -99q0 -32 7.5 -63.5t30.5 -58.5t58 -27q47 0 71 40t24 82v238zM154 642q-7 17 -1.5 33t21.5 23q16 8 32.5 3t23.5 -21q4 -9 13 -33t15 -37t18.5 -26t27.5 -15q-28 -12 -79.5 10.5
t-70.5 62.5z" />
    <glyph glyph-name="aacute" unicode="&#xe1;" horiz-adv-x="463" 
d="M311 351q0 85 -22.5 121.5t-84.5 36.5q-39 0 -62 -14t-21 -33q1 -10 10.5 -18.5t20.5 -14t20 -17.5t9 -30q0 -22 -15.5 -38t-36.5 -16q-36 0 -50 37q-21 54 17 102.5t116 48.5q86 0 138.5 -45.5t52.5 -129.5v-285q0 -33 35 -33v-3l-127 -36v53q-41 -53 -103 -53
q-79 0 -131 42.5t-52 113.5q0 65 41.5 107.5t91.5 42.5q38 0 61 -18v-3q-53 9 -76 -30t-23 -99q0 -32 7.5 -63.5t30.5 -58.5t58 -27q47 0 71 40t24 82v238zM160 569q15 2 27.5 15t18.5 26t15 37t13 33q7 16 23.5 21t32.5 -3q16 -7 21.5 -23t-1.5 -33q-19 -40 -70.5 -62.5
t-79.5 -10.5z" />
    <glyph glyph-name="acircumflex" unicode="&#xe2;" horiz-adv-x="463" 
d="M311 351q0 85 -22.5 121.5t-84.5 36.5q-39 0 -62 -14t-21 -33q1 -10 10.5 -18.5t20.5 -14t20 -17.5t9 -30q0 -22 -15.5 -38t-36.5 -16q-36 0 -50 37q-21 54 17 102.5t116 48.5q86 0 138.5 -45.5t52.5 -129.5v-285q0 -33 35 -33v-3l-127 -36v53q-41 -53 -103 -53
q-79 0 -131 42.5t-52 113.5q0 65 41.5 107.5t91.5 42.5q38 0 61 -18v-3q-53 9 -76 -30t-23 -99q0 -32 7.5 -63.5t30.5 -58.5t58 -27q47 0 71 40t24 82v238zM141 592q0 16 15 31q10 10 90 79q80 -69 90 -79q15 -15 15 -31q0 -14 -10 -24.5t-24 -10.5q-25 0 -41 37l-30 70
l-30 -70q-16 -37 -41 -37q-14 0 -24 10.5t-10 24.5z" />
    <glyph glyph-name="atilde" unicode="&#xe3;" horiz-adv-x="463" 
d="M311 351q0 85 -22.5 121.5t-84.5 36.5q-39 0 -62 -14t-21 -33q1 -10 10.5 -18.5t20.5 -14t20 -17.5t9 -30q0 -22 -15.5 -38t-36.5 -16q-36 0 -50 37q-21 54 17 102.5t116 48.5q86 0 138.5 -45.5t52.5 -129.5v-285q0 -33 35 -33v-3l-127 -36v53q-41 -53 -103 -53
q-79 0 -131 42.5t-52 113.5q0 65 41.5 107.5t91.5 42.5q38 0 61 -18v-3q-53 9 -76 -30t-23 -99q0 -32 7.5 -63.5t30.5 -58.5t58 -27q47 0 71 40t24 82v238zM144 583q0 43 14.5 65.5t39.5 22.5q26 0 56 -18t47 -18q30 0 43 27h3q0 -36 -16 -59t-40 -23t-56.5 17t-46.5 17
q-29 0 -41 -31h-3z" />
    <glyph glyph-name="adieresis" unicode="&#xe4;" horiz-adv-x="463" 
d="M311 351q0 85 -22.5 121.5t-84.5 36.5q-39 0 -62 -14t-21 -33q1 -10 10.5 -18.5t20.5 -14t20 -17.5t9 -30q0 -22 -15.5 -38t-36.5 -16q-36 0 -50 37q-21 54 17 102.5t116 48.5q86 0 138.5 -45.5t52.5 -129.5v-285q0 -33 35 -33v-3l-127 -36v53q-41 -53 -103 -53
q-79 0 -131 42.5t-52 113.5q0 65 41.5 107.5t91.5 42.5q38 0 61 -18v-3q-53 9 -76 -30t-23 -99q0 -32 7.5 -63.5t30.5 -58.5t58 -27q47 0 71 40t24 82v238zM98 624q0 25 18.5 43t43.5 18t43 -18t18 -43q0 -26 -18 -44.5t-43 -18.5q-26 0 -44 18.5t-18 44.5zM251 624
q0 25 18.5 43t43.5 18t43 -18t18 -43q0 -26 -18 -44.5t-43 -18.5q-26 0 -44 18.5t-18 44.5z" />
    <glyph glyph-name="aring" unicode="&#xe5;" horiz-adv-x="463" 
d="M311 351q0 85 -22.5 121.5t-84.5 36.5q-39 0 -62 -14t-21 -33q1 -10 10.5 -18.5t20.5 -14t20 -17.5t9 -30q0 -22 -15.5 -38t-36.5 -16q-36 0 -50 37q-21 54 17 102.5t116 48.5q86 0 138.5 -45.5t52.5 -129.5v-285q0 -33 35 -33v-3l-127 -36v53q-41 -53 -103 -53
q-79 0 -131 42.5t-52 113.5q0 65 41.5 107.5t91.5 42.5q38 0 61 -18v-3q-53 9 -76 -30t-23 -99q0 -32 7.5 -63.5t30.5 -58.5t58 -27q47 0 71 40t24 82v238zM178 627q0 30 20 49.5t47 19.5q28 0 48 -19.5t20 -49.5q0 -29 -20 -48t-48 -19q-27 0 -47 19t-20 48zM208 627
q0 -15 11 -26t26 -11q16 0 27 11t11 26q0 16 -11 27.5t-27 11.5q-15 0 -26 -11.5t-11 -27.5z" />
    <glyph glyph-name="ae" unicode="&#xe6;" horiz-adv-x="764" 
d="M311 351q0 85 -22.5 121.5t-84.5 36.5q-39 0 -62 -14t-21 -33q1 -10 10.5 -18.5t20.5 -14t20 -17.5t9 -30q0 -22 -15.5 -38t-36.5 -16q-17 0 -31 10.5t-19 26.5q-22 54 16 102.5t117 48.5q118 0 166 -77q67 77 168 77q84 0 141 -54t57 -118q0 -43 -33 -66t-80.5 -29
t-95 -10.5t-81.5 -19t-35 -45.5q19 -74 60 -116.5t89 -42.5q51 0 89 36t53 72h7q-28 -64 -77.5 -101.5t-111.5 -37.5q-51 0 -96 28t-76 76l-12 -20q-11 -21 -18.5 -30t-23.5 -24.5t-38 -22.5t-49 -7q-79 0 -134.5 41.5t-55.5 114.5q0 65 41.5 107.5t91.5 42.5q38 0 61 -18
v-3q-53 10 -76 -30t-23 -99q0 -33 7 -63.5t30.5 -58t60.5 -27.5q27 0 48.5 8.5t38.5 27.5t23.5 29t18.5 33q3 5 4 7q-40 68 -40 145v110zM406 284q0 -51 9 -93q8 22 35 34.5t59.5 20t64.5 18.5t53.5 38.5t21.5 70.5q0 52 -28 94t-75 42q-49 0 -82 -36t-45.5 -84t-12.5 -105z
" />
    <glyph glyph-name="ccedilla" unicode="&#xe7;" horiz-adv-x="452" 
d="M431 123q-28 -64 -77.5 -101.5t-111.5 -37.5l-18 1l-6 -34q19 7 31 7q20 0 36 -10.5t16 -36.5q0 -22 -17 -37t-49 -15q-26 0 -39 12.5t-13 25.5q0 9 7 16t17 7q8 0 14.5 -7t6.5 -16q0 -5 -1.5 -11.5t-1.5 -9.5q0 -10 13 -10q15 0 21.5 16t6.5 33q0 36 -22 36q-9 0 -27 -8
h-10l8 43q-81 13 -135.5 88t-54.5 176q0 112 66.5 189t166.5 77q77 0 131 -60t41 -119q-3 -18 -17.5 -31t-33.5 -13q-22 0 -37.5 16t-15.5 38q0 21 20.5 45t20.5 40q0 33 -33.5 55t-75.5 22q-71 0 -104.5 -67t-33.5 -158q0 -121 48.5 -195t113.5 -74q51 0 89 36t53 72h7z
" />
    <glyph glyph-name="egrave" unicode="&#xe8;" horiz-adv-x="478" 
d="M431 123q-28 -64 -77.5 -101.5t-111.5 -37.5q-89 0 -153 78t-64 188q0 112 66.5 189t168.5 77q84 0 141 -54t57 -118q0 -43 -33 -66t-80.5 -29t-95 -10.5t-81.5 -19t-35 -45.5q19 -74 60 -116.5t89 -42.5q51 0 89 36t53 72h7zM120 284q0 -51 9 -93q8 22 35 34.5t59.5 20
t64.5 18.5t53.5 38.5t21.5 70.5q0 52 -28 94t-75 42q-49 0 -82 -36t-45.5 -84t-12.5 -105zM168 642q-7 17 -1.5 33t21.5 23q16 8 32.5 3t23.5 -21q4 -9 13 -33t15 -37t18.5 -26t27.5 -15q-28 -12 -79.5 10.5t-70.5 62.5z" />
    <glyph glyph-name="eacute" unicode="&#xe9;" horiz-adv-x="478" 
d="M431 123q-28 -64 -77.5 -101.5t-111.5 -37.5q-89 0 -153 78t-64 188q0 112 66.5 189t168.5 77q84 0 141 -54t57 -118q0 -43 -33 -66t-80.5 -29t-95 -10.5t-81.5 -19t-35 -45.5q19 -74 60 -116.5t89 -42.5q51 0 89 36t53 72h7zM120 284q0 -51 9 -93q8 22 35 34.5t59.5 20
t64.5 18.5t53.5 38.5t21.5 70.5q0 52 -28 94t-75 42q-49 0 -82 -36t-45.5 -84t-12.5 -105zM174 569q15 2 27.5 15t18.5 26t15 37t13 33q7 16 23.5 21t32.5 -3q16 -7 21.5 -23t-1.5 -33q-19 -40 -70.5 -62.5t-79.5 -10.5z" />
    <glyph glyph-name="ecircumflex" unicode="&#xea;" horiz-adv-x="478" 
d="M431 123q-28 -64 -77.5 -101.5t-111.5 -37.5q-89 0 -153 78t-64 188q0 112 66.5 189t168.5 77q84 0 141 -54t57 -118q0 -43 -33 -66t-80.5 -29t-95 -10.5t-81.5 -19t-35 -45.5q19 -74 60 -116.5t89 -42.5q51 0 89 36t53 72h7zM120 284q0 -51 9 -93q8 22 35 34.5t59.5 20
t64.5 18.5t53.5 38.5t21.5 70.5q0 52 -28 94t-75 42q-49 0 -82 -36t-45.5 -84t-12.5 -105zM155 592q0 16 15 31q10 10 90 79q80 -69 90 -79q15 -15 15 -31q0 -14 -10 -24.5t-24 -10.5q-25 0 -41 37l-30 70l-30 -70q-16 -37 -41 -37q-14 0 -24 10.5t-10 24.5z" />
    <glyph glyph-name="edieresis" unicode="&#xeb;" horiz-adv-x="478" 
d="M431 123q-28 -64 -77.5 -101.5t-111.5 -37.5q-89 0 -153 78t-64 188q0 112 66.5 189t168.5 77q84 0 141 -54t57 -118q0 -43 -33 -66t-80.5 -29t-95 -10.5t-81.5 -19t-35 -45.5q19 -74 60 -116.5t89 -42.5q51 0 89 36t53 72h7zM112 624q0 25 18.5 43t43.5 18t43 -18
t18 -43q0 -26 -18 -44.5t-43 -18.5q-26 0 -44 18.5t-18 44.5zM120 284q0 -51 9 -93q8 22 35 34.5t59.5 20t64.5 18.5t53.5 38.5t21.5 70.5q0 52 -28 94t-75 42q-49 0 -82 -36t-45.5 -84t-12.5 -105zM265 624q0 25 18.5 43t43.5 18t43 -18t18 -43q0 -26 -18 -44.5t-43 -18.5
q-26 0 -44 18.5t-18 44.5z" />
    <glyph glyph-name="igrave" unicode="&#xec;" horiz-adv-x="282" 
d="M40 3q24 2 39.5 23.5t15.5 53.5v348q0 33 -35 33v3l127 36v-420q0 -32 15.5 -53.5t39.5 -23.5v-3h-202v3zM49 642q-7 17 -1.5 33t21.5 23q16 8 32.5 3t23.5 -21q4 -9 13 -33t15 -37t18.5 -26t27.5 -15q-28 -12 -79.5 10.5t-70.5 62.5z" />
    <glyph glyph-name="iacute" unicode="&#xed;" horiz-adv-x="282" 
d="M40 3q24 2 39.5 23.5t15.5 53.5v348q0 33 -35 33v3l127 36v-420q0 -32 15.5 -53.5t39.5 -23.5v-3h-202v3zM55 569q15 2 27.5 15t18.5 26t15 37t13 33q7 16 23.5 21t32.5 -3q16 -7 21.5 -23t-1.5 -33q-19 -40 -70.5 -62.5t-79.5 -10.5z" />
    <glyph glyph-name="icircumflex" unicode="&#xee;" horiz-adv-x="282" 
d="M40 3q24 2 39.5 23.5t15.5 53.5v348q0 33 -35 33v3l127 36v-420q0 -32 15.5 -53.5t39.5 -23.5v-3h-202v3zM36 592q0 16 15 31q10 10 90 79q80 -69 90 -79q15 -15 15 -31q0 -14 -10 -24.5t-24 -10.5q-25 0 -41 37l-30 70l-30 -70q-16 -37 -41 -37q-14 0 -24 10.5t-10 24.5
z" />
    <glyph glyph-name="idieresis" unicode="&#xef;" horiz-adv-x="282" 
d="M40 3q24 2 39.5 23.5t15.5 53.5v348q0 33 -35 33v3l127 36v-420q0 -32 15.5 -53.5t39.5 -23.5v-3h-202v3zM-7 624q0 25 18.5 43t43.5 18t43 -18t18 -43q0 -26 -18 -44.5t-43 -18.5q-26 0 -44 18.5t-18 44.5zM146 624q0 25 18.5 43t43.5 18t43 -18t18 -43q0 -26 -18 -44.5
t-43 -18.5q-26 0 -44 18.5t-18 44.5z" />
    <glyph glyph-name="eth" unicode="&#xf0;" horiz-adv-x="600" 
 />
    <glyph glyph-name="ntilde" unicode="&#xf1;" horiz-adv-x="606" 
d="M374 3q24 2 39.5 23.5t15.5 53.5v298q0 131 -100 131q-59 0 -100.5 -39.5t-41.5 -112.5v-277q0 -32 15.5 -53.5t39.5 -23.5v-3h-202v3q24 2 39.5 23.5t15.5 53.5v348q0 33 -35 33v3l127 36v-51q51 67 146 67q83 0 135.5 -43t52.5 -126v-267q0 -32 15.5 -53.5t39.5 -23.5
v-3h-202v3zM231 583q0 43 14.5 65.5t39.5 22.5t56 -18t47 -18q30 0 43 27h3q0 -36 -16 -59t-40 -23t-56.5 17t-46.5 17q-29 0 -41 -31h-3z" />
    <glyph glyph-name="ograve" unicode="&#xf2;" horiz-adv-x="483" 
d="M242 -16q-89 0 -153 78t-64 188t64 188t153 78t152.5 -78t63.5 -188t-63.5 -188t-152.5 -78zM120 250q0 -108 32 -183.5t90 -75.5t89.5 75.5t31.5 183.5t-31.5 183.5t-89.5 75.5t-90 -75.5t-32 -183.5zM150 642q-7 17 -1.5 33t21.5 23q16 8 32.5 3t23.5 -21q4 -9 13 -33
t15 -37t18.5 -26t27.5 -15q-28 -12 -79.5 10.5t-70.5 62.5z" />
    <glyph glyph-name="oacute" unicode="&#xf3;" horiz-adv-x="483" 
d="M242 -16q-89 0 -153 78t-64 188t64 188t153 78t152.5 -78t63.5 -188t-63.5 -188t-152.5 -78zM120 250q0 -108 32 -183.5t90 -75.5t89.5 75.5t31.5 183.5t-31.5 183.5t-89.5 75.5t-90 -75.5t-32 -183.5zM156 569q15 2 27.5 15t18.5 26t15 37t13 33q7 16 23.5 21t32.5 -3
q16 -7 21.5 -23t-1.5 -33q-19 -40 -70.5 -62.5t-79.5 -10.5z" />
    <glyph glyph-name="ocircumflex" unicode="&#xf4;" horiz-adv-x="483" 
d="M242 -16q-89 0 -153 78t-64 188t64 188t153 78t152.5 -78t63.5 -188t-63.5 -188t-152.5 -78zM120 250q0 -108 32 -183.5t90 -75.5t89.5 75.5t31.5 183.5t-31.5 183.5t-89.5 75.5t-90 -75.5t-32 -183.5zM137 592q0 16 15 31q10 10 90 79q80 -69 90 -79q15 -15 15 -31
q0 -14 -10 -24.5t-24 -10.5q-25 0 -41 37l-30 70l-30 -70q-16 -37 -41 -37q-14 0 -24 10.5t-10 24.5z" />
    <glyph glyph-name="otilde" unicode="&#xf5;" horiz-adv-x="483" 
d="M242 -16q-89 0 -153 78t-64 188t64 188t153 78t152.5 -78t63.5 -188t-63.5 -188t-152.5 -78zM120 250q0 -108 32 -183.5t90 -75.5t89.5 75.5t31.5 183.5t-31.5 183.5t-89.5 75.5t-90 -75.5t-32 -183.5zM140 583q0 43 14.5 65.5t39.5 22.5q26 0 56 -18t47 -18q30 0 43 27
h3q0 -36 -16 -59t-40 -23t-56.5 17t-46.5 17q-29 0 -41 -31h-3z" />
    <glyph glyph-name="odieresis" unicode="&#xf6;" horiz-adv-x="483" 
d="M242 -16q-89 0 -153 78t-64 188t64 188t153 78t152.5 -78t63.5 -188t-63.5 -188t-152.5 -78zM94 624q0 25 18.5 43t43.5 18t43 -18t18 -43q0 -26 -18 -44.5t-43 -18.5q-26 0 -44 18.5t-18 44.5zM120 250q0 -108 32 -183.5t90 -75.5t89.5 75.5t31.5 183.5t-31.5 183.5
t-89.5 75.5t-90 -75.5t-32 -183.5zM247 624q0 25 18.5 43t43.5 18t43 -18t18 -43q0 -26 -18 -44.5t-43 -18.5q-26 0 -44 18.5t-18 44.5z" />
    <glyph glyph-name="divide" unicode="&#xf7;" horiz-adv-x="240" 
d="M117 357q-22 0 -37.5 16t-15.5 38q0 21 15.5 36.5t37.5 15.5q21 0 36.5 -15.5t15.5 -36.5q0 -22 -15.5 -38t-36.5 -16zM20 256v20h200v-20h-200zM64 121q0 22 15.5 38t36.5 16q22 0 37.5 -16t15.5 -38q0 -21 -15.5 -36.5t-37.5 -15.5q-21 0 -36.5 15.5t-15.5 36.5z" />
    <glyph glyph-name="oslash" unicode="&#xf8;" horiz-adv-x="483" 
d="M242 -16q-40 0 -80 19l-21 -56h-22l24 66q-53 34 -85.5 97.5t-32.5 139.5q0 110 64 188t153 78q41 0 79 -19l21 56h22l-24 -66q53 -34 85.5 -97.5t32.5 -139.5q0 -110 -63.5 -188t-152.5 -78zM120 250q0 -123 38 -197l153 417q-29 39 -69 39q-58 0 -90 -75.5t-32 -183.5z
M172 31q29 -40 70 -40q58 0 89.5 75.5t31.5 183.5q0 125 -38 197z" />
    <glyph glyph-name="ugrave" unicode="&#xf9;" horiz-adv-x="566" 
d="M399 431q0 16 -6 23t-26 8v2l124 36v-444q0 -33 35 -33v-3l-127 -36v67q-51 -67 -145 -67q-83 0 -136 43t-53 126v275q0 33 -35 33v3l127 36v-378q0 -131 101 -131q58 0 99.5 39.5t41.5 112.5v288zM202 642q-7 17 -1.5 33t21.5 23q16 8 32.5 3t23.5 -21q4 -9 13 -33
t15 -37t18.5 -26t27.5 -15q-28 -12 -79.5 10.5t-70.5 62.5z" />
    <glyph glyph-name="uacute" unicode="&#xfa;" horiz-adv-x="566" 
d="M399 431q0 16 -6 23t-26 8v2l124 36v-444q0 -33 35 -33v-3l-127 -36v67q-51 -67 -145 -67q-83 0 -136 43t-53 126v275q0 33 -35 33v3l127 36v-378q0 -131 101 -131q58 0 99.5 39.5t41.5 112.5v288zM208 569q15 2 27.5 15t18.5 26t15 37t13 33q7 16 23.5 21t32.5 -3
q16 -7 21.5 -23t-1.5 -33q-19 -40 -70.5 -62.5t-79.5 -10.5z" />
    <glyph glyph-name="ucircumflex" unicode="&#xfb;" horiz-adv-x="566" 
d="M399 431q0 16 -6 23t-26 8v2l124 36v-444q0 -33 35 -33v-3l-127 -36v67q-51 -67 -145 -67q-83 0 -136 43t-53 126v275q0 33 -35 33v3l127 36v-378q0 -131 101 -131q58 0 99.5 39.5t41.5 112.5v288zM189 592q0 16 15 31q10 10 90 79q80 -69 90 -79q15 -15 15 -31
q0 -14 -10 -24.5t-24 -10.5q-25 0 -41 37l-30 70l-30 -70q-16 -37 -41 -37q-14 0 -24 10.5t-10 24.5z" />
    <glyph glyph-name="udieresis" unicode="&#xfc;" horiz-adv-x="566" 
d="M399 431q0 16 -6 23t-26 8v2l124 36v-444q0 -33 35 -33v-3l-127 -36v67q-51 -67 -145 -67q-83 0 -136 43t-53 126v275q0 33 -35 33v3l127 36v-378q0 -131 101 -131q58 0 99.5 39.5t41.5 112.5v288zM146 624q0 25 18.5 43t43.5 18t43 -18t18 -43q0 -26 -18 -44.5
t-43 -18.5q-26 0 -44 18.5t-18 44.5zM299 624q0 25 18.5 43t43.5 18t43 -18t18 -43q0 -26 -18 -44.5t-43 -18.5q-26 0 -44 18.5t-18 44.5z" />
    <glyph glyph-name="yacute" unicode="&#xfd;" horiz-adv-x="556" 
d="M104 -125q22 0 37.5 -16t15.5 -39q0 -29 -32 -46q-6 -3 -16.5 -6.5t-15.5 -6.5t-5 -7q0 -11 10.5 -22t29.5 -11q57 0 87 78l80 201h-20l-189 420q-33 72 -81 77v3h194v-3q-23 -2 -28.5 -23t9.5 -54l150 -332l131 332q12 30 5.5 52.5t-28.5 24.5v3h113v-3
q-22 -2 -46 -24.5t-36 -52.5l-246 -621q-34 -85 -95 -85q-40 0 -63.5 42.5t-10.5 79.5q5 17 19 28t31 11zM234 569q15 2 27.5 15t18.5 26t15 37t13 33q7 16 23.5 21t32.5 -3q16 -7 21.5 -23t-1.5 -33q-19 -40 -70.5 -62.5t-79.5 -10.5z" />
    <glyph glyph-name="thorn" unicode="&#xfe;" horiz-adv-x="517" 
d="M253 571q92 0 165.5 -64.5t73.5 -156.5t-73.5 -156.5t-165.5 -64.5h-66v-49q0 -32 15.5 -53.5t39.5 -23.5v-3h-202v3q24 2 39.5 23.5t15.5 53.5v546q0 33 -35 33v3l127 54v-145h66zM187 139h66q61 0 102.5 61.5t41.5 149.5t-41.5 149.5t-102.5 61.5h-66v-422z" />
    <glyph glyph-name="ydieresis" unicode="&#xff;" horiz-adv-x="556" 
d="M104 -125q22 0 37.5 -16t15.5 -39q0 -29 -32 -46q-6 -3 -16.5 -6.5t-15.5 -6.5t-5 -7q0 -11 10.5 -22t29.5 -11q57 0 87 78l80 201h-20l-189 420q-33 72 -81 77v3h194v-3q-23 -2 -28.5 -23t9.5 -54l150 -332l131 332q12 30 5.5 52.5t-28.5 24.5v3h113v-3
q-22 -2 -46 -24.5t-36 -52.5l-246 -621q-34 -85 -95 -85q-40 0 -63.5 42.5t-10.5 79.5q5 17 19 28t31 11zM172 624q0 25 18.5 43t43.5 18t43 -18t18 -43q0 -26 -18 -44.5t-43 -18.5q-26 0 -44 18.5t-18 44.5zM325 624q0 25 18.5 43t43.5 18t43 -18t18 -43q0 -26 -18 -44.5
t-43 -18.5q-26 0 -44 18.5t-18 44.5z" />
    <glyph glyph-name="dotlessi" unicode="&#x131;" horiz-adv-x="282" 
d="M40 3q24 2 39.5 23.5t15.5 53.5v348q0 33 -35 33v3l127 36v-420q0 -32 15.5 -53.5t39.5 -23.5v-3h-202v3z" />
    <glyph glyph-name="IJ" unicode="&#x132;" horiz-adv-x="712" 
d="M40 4q24 2 41 24.5t17 55.5v532q0 33 -17 55.5t-41 24.5v4h216v-4q-24 -2 -41 -24.5t-17 -55.5v-532q0 -33 17 -55.5t41 -24.5v-4h-216v4zM271 144q0 25 18.5 43.5t44.5 18.5q25 0 43.5 -18.5t18.5 -43.5q0 -26 -22.5 -50.5t-24.5 -42.5q-2 -20 20 -38.5t69 -18.5
q28 0 46.5 11.5t26.5 34t10.5 44t2.5 53.5v479q0 33 -17 55.5t-41 24.5v4h216v-4q-24 -2 -41 -24.5t-17 -55.5v-448q0 -46 -18 -86t-62 -69t-106 -29q-82 0 -124.5 51t-42.5 109z" />
    <glyph glyph-name="ij" unicode="&#x133;" horiz-adv-x="518" 
d="M40 3q24 2 39.5 23.5t15.5 53.5v348q0 33 -35 33v3l127 36v-420q0 -32 15.5 -53.5t39.5 -23.5v-3h-202v3zM79 624q0 25 18.5 43t43.5 18t43 -18t18 -43q0 -26 -18 -44.5t-43 -18.5q-26 0 -44 18.5t-18 44.5zM177 -79l1 2q14 29 46 29q22 0 37.5 -16t15.5 -38
q0 -24 -22.5 -43t-24.5 -32q-3 -20 14 -33t38 -13q23 0 38 12t21 38t8 49.5t2 62.5v489q0 33 -35 33v3l127 36v-531q0 -94 -38.5 -146.5t-118.5 -52.5q-61 0 -97.5 49t-11.5 102zM335 608q0 25 18.5 43t43.5 18t43 -18t18 -43q0 -26 -18 -44.5t-43 -18.5q-26 0 -44 18.5
t-18 44.5z" />
    <glyph glyph-name="OE" unicode="&#x152;" horiz-adv-x="944" 
d="M430 668q-44 38 -92 38q-87 0 -147.5 -104.5t-60.5 -252.5q0 -147 60.5 -251t147.5 -104q47 0 92 37v637zM25 349q0 153 91.5 260t222.5 107q45 0 91 -16h428l52 -126h-4q-14 22 -27 38t-35 36t-51 31t-64 11h-199v-341h117q33 0 55.5 17t24.5 41h4v-126h-4
q-2 24 -24.5 41t-55.5 17h-117v-329h221q34 0 64.5 13t54.5 37.5t36.5 40.5t28.5 41h4l-59 -142h-450q-46 -16 -91 -16q-131 0 -222.5 107t-91.5 258z" />
    <glyph glyph-name="oe" unicode="&#x153;" horiz-adv-x="816" 
d="M242 -16q-89 0 -153 78t-64 188t64 188t153 78q50 0 94 -27t75 -74q70 101 187 101q84 0 141 -54t57 -118q0 -43 -33 -66t-80.5 -29t-95 -10.5t-81.5 -19t-35 -45.5q19 -74 60 -116.5t89 -42.5q51 0 89 36t53 72h7q-28 -64 -77.5 -101.5t-111.5 -37.5q-50 0 -94.5 27
t-74.5 73q-66 -100 -169 -100zM120 250q0 -108 32 -183.5t90 -75.5t89.5 75.5t31.5 183.5t-31.5 183.5t-89.5 75.5t-90 -75.5t-32 -183.5zM458 284q0 -51 9 -93q8 22 35 34.5t59.5 20t64.5 18.5t53.5 38.5t21.5 70.5q0 52 -28 94t-75 42q-49 0 -82 -36t-45.5 -84t-12.5 -105
z" />
    <glyph glyph-name="Wcircumflex" unicode="&#x174;" horiz-adv-x="1100" 
d="M216 696q-21 -2 -27.5 -27t5.5 -53l202 -480l190 564h25l211 -571l184 487q11 30 4 54t-29 26v4h114v-4q-22 -2 -44.5 -25t-34.5 -55l-233 -616h-10l-221 570l-151 -447l1 -2l-42 -121h-10l-263 616q-14 32 -37 55t-45 25v4h211v-4zM495 792q0 16 15 31q10 10 90 79
q80 -69 90 -79q15 -15 15 -31q0 -14 -10 -24.5t-24 -10.5q-25 0 -41 37l-30 70l-30 -70q-16 -37 -41 -37q-14 0 -24 10.5t-10 24.5z" />
    <glyph glyph-name="wcircumflex" unicode="&#x175;" horiz-adv-x="832" 
d="M199 497q-30 -3 -33 -23.5t14 -53.5l136 -303l137 383h7l155 -389l123 309q12 31 5.5 53t-28.5 24v3h112v-3q-23 -2 -46 -24t-36 -53l-167 -420h-7l-155 376l-134 -376h-7l-189 420q-33 72 -81 77v3h194v-3zM351 592q0 16 15 31q10 10 90 79q80 -69 90 -79q15 -15 15 -31
q0 -14 -10 -24.5t-24 -10.5q-25 0 -41 37l-30 70l-30 -70q-16 -37 -41 -37q-14 0 -24 10.5t-10 24.5z" />
    <glyph glyph-name="Ycircumflex" unicode="&#x176;" horiz-adv-x="682" 
d="M233 4q24 2 41 24.5t17 55.5v197l-190 335q-18 31 -46 54.5t-50 25.5v4h206v-4q-21 -2 -23.5 -27.5t13.5 -52.5l185 -326l185 326q17 29 14 53.5t-24 26.5v4h116v-4q-22 -2 -49.5 -25.5t-45.5 -54.5l-191 -335v-197q0 -33 17 -55.5t41 -24.5v-4h-216v4zM279 793
q0 16 15 31q10 10 90 79q80 -69 90 -79q15 -15 15 -31q0 -14 -10 -24.5t-24 -10.5q-25 0 -41 37l-30 70l-30 -70q-16 -37 -41 -37q-14 0 -24 10.5t-10 24.5z" />
    <glyph glyph-name="ycircumflex" unicode="&#x177;" horiz-adv-x="556" 
d="M104 -125q22 0 37.5 -16t15.5 -39q0 -29 -32 -46q-6 -3 -16.5 -6.5t-15.5 -6.5t-5 -7q0 -11 10.5 -22t29.5 -11q57 0 87 78l80 201h-20l-189 420q-33 72 -81 77v3h194v-3q-23 -2 -28.5 -23t9.5 -54l150 -332l131 332q12 30 5.5 52.5t-28.5 24.5v3h113v-3
q-22 -2 -46 -24.5t-36 -52.5l-246 -621q-34 -85 -95 -85q-40 0 -63.5 42.5t-10.5 79.5q5 17 19 28t31 11zM215 592q0 16 15 31q10 10 90 79q80 -69 90 -79q15 -15 15 -31q0 -14 -10 -24.5t-24 -10.5q-25 0 -41 37l-30 70l-30 -70q-16 -37 -41 -37q-14 0 -24 10.5t-10 24.5z
" />
    <glyph glyph-name="Ydieresis" unicode="&#x178;" horiz-adv-x="682" 
d="M233 4q24 2 41 24.5t17 55.5v197l-190 335q-18 31 -46 54.5t-50 25.5v4h206v-4q-21 -2 -23.5 -27.5t13.5 -52.5l185 -326l185 326q17 29 14 53.5t-24 26.5v4h116v-4q-22 -2 -49.5 -25.5t-45.5 -54.5l-191 -335v-197q0 -33 17 -55.5t41 -24.5v-4h-216v4zM236 825
q0 25 18.5 43t43.5 18t43 -18t18 -43q0 -26 -18 -44.5t-43 -18.5q-26 0 -44 18.5t-18 44.5zM389 825q0 25 18.5 43t43.5 18t43 -18t18 -43q0 -26 -18 -44.5t-43 -18.5q-26 0 -44 18.5t-18 44.5z" />
    <glyph glyph-name="uni0237" unicode="&#x237;" horiz-adv-x="356" 
d="M281 -31q0 -94 -38.5 -146.5t-118.5 -52.5q-61 0 -97.5 49t-11.5 102l1 2q14 29 46 29q22 0 37.5 -16t15.5 -38q0 -24 -22.5 -43t-24.5 -32q-3 -20 14 -33t38 -13q23 0 38 12t21 38t8 49.5t2 62.5v489q0 33 -35 33v3l127 36v-531z" />
    <glyph glyph-name="gravecomb" unicode="&#x300;" horiz-adv-x="0" 
d="M44 682q16 8 32.5 3t23.5 -21q4 -9 13 -33t15 -37t18.5 -26t27.5 -15q-28 -12 -79.5 10.5t-70.5 62.5q-7 17 -1.5 33t21.5 23z" />
    <glyph glyph-name="acutecomb" unicode="&#x301;" horiz-adv-x="0" 
d="M150 682q16 -7 21.5 -23t-1.5 -33q-19 -40 -70.5 -62.5t-79.5 -10.5q15 2 27.5 15t18.5 26t15 37t13 33q7 16 23.5 21t32.5 -3z" />
    <glyph glyph-name="uni0302" unicode="&#x302;" horiz-adv-x="0" 
d="M125 686q80 -69 90 -79q15 -15 15 -31q0 -14 -10 -24.5t-24 -10.5q-25 0 -41 37l-30 70l-30 -70q-16 -37 -41 -37q-14 0 -24 10.5t-10 24.5q0 16 15 31q10 10 90 79z" />
    <glyph glyph-name="tildecomb" unicode="&#x303;" horiz-adv-x="0" 
d="M20 567q0 43 14.5 65.5t39.5 22.5q26 0 56 -18t47 -18q30 0 43 27h3q0 -36 -16 -59t-40 -23t-56.5 17t-46.5 17q-29 0 -41 -31h-3z" />
    <glyph glyph-name="uni0307" unicode="&#x307;" horiz-adv-x="0" 
d="M82 545q-26 0 -44 18.5t-18 44.5q0 25 18.5 43t43.5 18t43 -18t18 -43q0 -26 -18 -44.5t-43 -18.5z" />
    <glyph glyph-name="uni0308" unicode="&#x308;" horiz-adv-x="0" 
d="M82 545q-26 0 -44 18.5t-18 44.5q0 25 18.5 43t43.5 18t43 -18t18 -43q0 -26 -18 -44.5t-43 -18.5zM173 608q0 25 18.5 43t43.5 18t43 -18t18 -43q0 -26 -18 -44.5t-43 -18.5q-26 0 -44 18.5t-18 44.5z" />
    <glyph glyph-name="uni030A" unicode="&#x30a;" horiz-adv-x="0" 
d="M87 650q-15 0 -26 -11.5t-11 -27.5q0 -15 11 -26t26 -11q16 0 27 11t11 26q0 16 -11 27.5t-27 11.5zM20 611q0 30 20 49.5t47 19.5q28 0 48 -19.5t20 -49.5q0 -29 -20 -48t-48 -19q-27 0 -47 19t-20 48z" />
    <glyph glyph-name="uni0327" unicode="&#x327;" horiz-adv-x="0" 
d="M44 -57l10 57h10l-9 -49q19 7 31 7q20 0 36 -10.5t16 -36.5q0 -22 -17 -37t-49 -15q-26 0 -39 12.5t-13 25.5q0 9 7 16t17 7q8 0 14.5 -7t6.5 -16q0 -5 -1.5 -11.5t-1.5 -9.5q0 -10 13 -10q15 0 21.5 16t6.5 33q0 36 -22 36q-9 0 -27 -8h-10z" />
    <glyph glyph-name="beta" unicode="&#x3b2;" horiz-adv-x="616" 
d="M34 0q32 0 59 30t27 56v404q0 114 61 170t158 56q82 0 146 -56t64 -146q0 -73 -43 -125.5t-74 -52.5q11 0 31.5 -7t46.5 -22t49 -35.5t39 -52t16 -66.5q0 -77 -58 -123t-141 -46q-48 0 -83.5 21.5t-49.5 52.5t-18 66.5t12 62.5q7 17 23.5 28.5t35.5 11.5q25 0 43.5 -19
t18.5 -46q-1 -26 -15 -41.5t-30 -19.5t-29 -11t-13 -18q0 -30 29.5 -55.5t75.5 -25.5q36 0 59 27.5t29 57t6 59.5q0 40 -11.5 74.5t-28 55t-35 35.5t-31.5 21t-19 6q19 14 39.5 63t20.5 124q0 86 -25 140.5t-80 54.5q-52 0 -85.5 -40t-33.5 -133v-536h-186z" />
    <glyph glyph-name="Wgrave" unicode="&#x1e80;" horiz-adv-x="1100" 
d="M216 696q-21 -2 -27.5 -27t5.5 -53l202 -480l190 564h25l211 -571l184 487q11 30 4 54t-29 26v4h114v-4q-22 -2 -44.5 -25t-34.5 -55l-233 -616h-10l-221 570l-151 -447l1 -2l-42 -121h-10l-263 616q-14 32 -37 55t-45 25v4h211v-4zM508 842q-7 17 -1.5 33t21.5 23
q16 8 32.5 3t23.5 -21q4 -9 13 -33t15 -37t18.5 -26t27.5 -15q-28 -12 -79.5 10.5t-70.5 62.5z" />
    <glyph glyph-name="wgrave" unicode="&#x1e81;" horiz-adv-x="832" 
d="M199 497q-30 -3 -33 -23.5t14 -53.5l136 -303l137 383h7l155 -389l123 309q12 31 5.5 53t-28.5 24v3h112v-3q-23 -2 -46 -24t-36 -53l-167 -420h-7l-155 376l-134 -376h-7l-189 420q-33 72 -81 77v3h194v-3zM364 642q-7 17 -1.5 33t21.5 23q16 8 32.5 3t23.5 -21
q4 -9 13 -33t15 -37t18.5 -26t27.5 -15q-28 -12 -79.5 10.5t-70.5 62.5z" />
    <glyph glyph-name="Wacute" unicode="&#x1e82;" horiz-adv-x="1100" 
d="M216 696q-21 -2 -27.5 -27t5.5 -53l202 -480l190 564h25l211 -571l184 487q11 30 4 54t-29 26v4h114v-4q-22 -2 -44.5 -25t-34.5 -55l-233 -616h-10l-221 570l-151 -447l1 -2l-42 -121h-10l-263 616q-14 32 -37 55t-45 25v4h211v-4zM514 769q15 2 27.5 15t18.5 26t15 37
t13 33q7 16 23.5 21t32.5 -3q16 -7 21.5 -23t-1.5 -33q-19 -40 -70.5 -62.5t-79.5 -10.5z" />
    <glyph glyph-name="wacute" unicode="&#x1e83;" horiz-adv-x="832" 
d="M199 497q-30 -3 -33 -23.5t14 -53.5l136 -303l137 383h7l155 -389l123 309q12 31 5.5 53t-28.5 24v3h112v-3q-23 -2 -46 -24t-36 -53l-167 -420h-7l-155 376l-134 -376h-7l-189 420q-33 72 -81 77v3h194v-3zM370 569q15 2 27.5 15t18.5 26t15 37t13 33q7 16 23.5 21
t32.5 -3q16 -7 21.5 -23t-1.5 -33q-19 -40 -70.5 -62.5t-79.5 -10.5z" />
    <glyph glyph-name="Wdieresis" unicode="&#x1e84;" horiz-adv-x="1100" 
d="M216 696q-21 -2 -27.5 -27t5.5 -53l202 -480l190 564h25l211 -571l184 487q11 30 4 54t-29 26v4h114v-4q-22 -2 -44.5 -25t-34.5 -55l-233 -616h-10l-221 570l-151 -447l1 -2l-42 -121h-10l-263 616q-14 32 -37 55t-45 25v4h211v-4zM452 824q0 25 18.5 43t43.5 18t43 -18
t18 -43q0 -26 -18 -44.5t-43 -18.5q-26 0 -44 18.5t-18 44.5zM605 824q0 25 18.5 43t43.5 18t43 -18t18 -43q0 -26 -18 -44.5t-43 -18.5q-26 0 -44 18.5t-18 44.5z" />
    <glyph glyph-name="wdieresis" unicode="&#x1e85;" horiz-adv-x="832" 
d="M199 497q-30 -3 -33 -23.5t14 -53.5l136 -303l137 383h7l155 -389l123 309q12 31 5.5 53t-28.5 24v3h112v-3q-23 -2 -46 -24t-36 -53l-167 -420h-7l-155 376l-134 -376h-7l-189 420q-33 72 -81 77v3h194v-3zM308 624q0 25 18.5 43t43.5 18t43 -18t18 -43q0 -26 -18 -44.5
t-43 -18.5q-26 0 -44 18.5t-18 44.5zM461 624q0 25 18.5 43t43.5 18t43 -18t18 -43q0 -26 -18 -44.5t-43 -18.5q-26 0 -44 18.5t-18 44.5z" />
    <glyph glyph-name="uni1E9E" unicode="&#x1e9e;" horiz-adv-x="671" 
d="M40 4q24 2 41 24.5t17 55.5v339q0 69 17 121t42.5 80.5t60.5 46.5t64.5 23.5t61.5 5.5q110 0 173.5 -47t63.5 -119q0 -58 -50 -102t-139 -59q118 -5 186 -47t68 -139q0 -55 -26.5 -93.5t-75 -58t-103 -27.5t-124.5 -8h-277v4zM198 10h119q95 0 159.5 44t64.5 133
t-65 134.5t-159 45.5h-5v4q82 0 125.5 46t43.5 117t-34 113.5t-103 42.5q-22 0 -38.5 -3.5t-38 -19.5t-35.5 -43t-24 -78.5t-10 -122.5v-413z" />
    <glyph glyph-name="Ygrave" unicode="&#x1ef2;" horiz-adv-x="682" 
d="M233 4q24 2 41 24.5t17 55.5v197l-190 335q-18 31 -46 54.5t-50 25.5v4h206v-4q-21 -2 -23.5 -27.5t13.5 -52.5l185 -326l185 326q17 29 14 53.5t-24 26.5v4h116v-4q-22 -2 -49.5 -25.5t-45.5 -54.5l-191 -335v-197q0 -33 17 -55.5t41 -24.5v-4h-216v4zM292 843
q-7 17 -1.5 33t21.5 23q16 8 32.5 3t23.5 -21q4 -9 13 -33t15 -37t18.5 -26t27.5 -15q-28 -12 -79.5 10.5t-70.5 62.5z" />
    <glyph glyph-name="ygrave" unicode="&#x1ef3;" horiz-adv-x="556" 
d="M104 -125q22 0 37.5 -16t15.5 -39q0 -29 -32 -46q-6 -3 -16.5 -6.5t-15.5 -6.5t-5 -7q0 -11 10.5 -22t29.5 -11q57 0 87 78l80 201h-20l-189 420q-33 72 -81 77v3h194v-3q-23 -2 -28.5 -23t9.5 -54l150 -332l131 332q12 30 5.5 52.5t-28.5 24.5v3h113v-3
q-22 -2 -46 -24.5t-36 -52.5l-246 -621q-34 -85 -95 -85q-40 0 -63.5 42.5t-10.5 79.5q5 17 19 28t31 11zM228 642q-7 17 -1.5 33t21.5 23q16 8 32.5 3t23.5 -21q4 -9 13 -33t15 -37t18.5 -26t27.5 -15q-28 -12 -79.5 10.5t-70.5 62.5z" />
    <glyph glyph-name="endash" unicode="&#x2013;" horiz-adv-x="350" 
d="M330 323v-20h-310v20h310z" />
    <glyph glyph-name="emdash" unicode="&#x2014;" horiz-adv-x="540" 
d="M520 323v-20h-500v20h500z" />
    <glyph glyph-name="quoteleft" unicode="&#x2018;" horiz-adv-x="145" 
d="M70 582q-20 0 -35 15t-15 37q0 18 9 30t20 16.5t20 12.5t9 18q0 16 -11 30t-22 14q36 0 65 -54t4 -95q-17 -24 -44 -24z" />
    <glyph glyph-name="quoteright" unicode="&#x2019;" horiz-adv-x="145" 
d="M70 716q27 0 44 -24q25 -41 -4 -95t-65 -54q11 0 22 14t11 30q0 10 -9 18t-20 12.5t-20 16.5t-9 30q0 22 15 37t35 15z" />
    <glyph glyph-name="quotesinglbase" unicode="&#x201a;" horiz-adv-x="145" 
d="M70 106q27 0 44 -24q25 -41 -4 -95t-65 -54q11 0 22 14t11 30q0 10 -9 18t-20 12.5t-20 16.5t-9 30q0 22 15 37t35 15z" />
    <glyph glyph-name="quotedblleft" unicode="&#x201c;" horiz-adv-x="274" 
d="M70 582q-20 0 -35 15t-15 37q0 18 9 30t20 16.5t20 12.5t9 18q0 16 -11 30t-22 14q36 0 65 -54t4 -95q-17 -24 -44 -24zM149 634q0 18 9 30t20 16.5t20 12.5t9 18q0 16 -10.5 30t-22.5 14q36 0 65 -54t4 -95q-17 -24 -44 -24q-20 0 -35 15t-15 37z" />
    <glyph glyph-name="quotedblright" unicode="&#x201d;" horiz-adv-x="274" 
d="M70 716q27 0 44 -24q25 -41 -4 -95t-65 -54q11 0 22 14t11 30q0 10 -9 18t-20 12.5t-20 16.5t-9 30q0 22 15 37t35 15zM149 664q0 22 15 37t35 15q27 0 44 -24q25 -41 -4 -95t-65 -54q12 0 22.5 14t10.5 30q0 10 -9 18t-20 12.5t-20 16.5t-9 30z" />
    <glyph glyph-name="quotedblbase" unicode="&#x201e;" horiz-adv-x="274" 
d="M70 106q27 0 44 -24q25 -41 -4 -95t-65 -54q11 0 22 14t11 30q0 10 -9 18t-20 12.5t-20 16.5t-9 30q0 22 15 37t35 15zM149 54q0 22 15 37t35 15q27 0 44 -24q25 -41 -4 -95t-65 -54q12 0 22.5 14t10.5 30q0 10 -9 18t-20 12.5t-20 16.5t-9 30z" />
    <glyph glyph-name="bullet" unicode="&#x2022;" horiz-adv-x="245" 
d="M123 242q-42 0 -72.5 31t-30.5 74q0 41 30.5 71t72.5 30q41 0 71.5 -30t30.5 -71q0 -43 -30.5 -74t-71.5 -31z" />
    <glyph glyph-name="guilsinglleft" unicode="&#x2039;" horiz-adv-x="226" 
d="M221 415l-185 -155l185 -155v-26l-216 181l216 181v-26z" />
    <glyph glyph-name="guilsinglright" unicode="&#x203a;" horiz-adv-x="226" 
d="M5 415v26l216 -181l-216 -181v26l185 155z" />
    <glyph glyph-name="Euro" unicode="&#x20ac;" horiz-adv-x="686" 
d="M408 706q-51 0 -92.5 -25.5t-68 -68t-43 -89.5t-23.5 -99h128v-20h-131q-3 -28 -3 -55t3 -55h131v-20h-128q7 -52 23.5 -99t43 -89.5t68 -68t92.5 -25.5q182 0 249 255h4l-13 -249h-4q-4 19 -11.5 27.5t-20.5 6.5q-9 -1 -42 -14.5t-76.5 -24.5t-85.5 -11
q-116 0 -211 83.5t-120 208.5h-62v20h59q-4 24 -4 55t4 55h-59v20h62q25 125 120 208.5t211 83.5q42 0 85.5 -11t76.5 -24.5t42 -14.5q13 -2 20.5 6.5t11.5 27.5h4l13 -249h-4q-67 255 -249 255z" />
    <glyph glyph-name="trademark" unicode="&#x2122;" horiz-adv-x="443" 
d="M80 501q17 2 17 23v173h-25q-26 0 -51 -33h-1l15 36h152l15 -36h-1q-25 33 -51 33h-25v-173q0 -21 17 -23v-1h-62v1zM209 500v1q16 2 16 23v152q0 21 -16 23v1h38l69 -149l61 149h46v-1q-17 -2 -17 -23v-152q0 -21 17 -23v-1h-61v1q15 2 15 23v169l-73 -177h-3l-73 160
v-152q0 -21 16 -23v-1h-35z" />
    <glyph glyph-name="minus" unicode="&#x2212;" horiz-adv-x="290" 
d="M270 323v-20h-250v20h250z" />
    <glyph glyph-name="uni004A0301" horiz-adv-x="446" 
d="M258 616q0 33 -17 55.5t-41 24.5v4h216v-4q-24 -2 -41 -24.5t-17 -55.5v-448q0 -46 -18 -86t-62 -69t-106 -29q-82 0 -124.5 51t-42.5 109q0 25 18.5 43.5t44.5 18.5q25 0 43.5 -18.5t18.5 -43.5q0 -26 -22.5 -50.5t-24.5 -42.5q-2 -20 20 -38.5t69 -18.5q28 0 46.5 11.5
t26.5 34t10.5 44t2.5 53.5v479zM218 769q15 2 27.5 15t18.5 26t15 37t13 33q7 16 23.5 21t32.5 -3q16 -7 21.5 -23t-1.5 -33q-19 -40 -70.5 -62.5t-79.5 -10.5z" />
    <glyph glyph-name="uni006A0301" horiz-adv-x="356" 
d="M281 -31q0 -94 -38.5 -146.5t-118.5 -52.5q-61 0 -97.5 49t-11.5 102l1 2q14 29 46 29q22 0 37.5 -16t15.5 -38q0 -24 -22.5 -43t-24.5 -32q-3 -20 14 -33t38 -13q23 0 38 12t21 38t8 49.5t2 62.5v489q0 33 -35 33v3l127 36v-531zM136 569q15 2 27.5 15t18.5 26t15 37
t13 33q7 16 23.5 21t32.5 -3q16 -7 21.5 -23t-1.5 -33q-19 -40 -70.5 -62.5t-79.5 -10.5z" />
    <glyph glyph-name="a.ss01" horiz-adv-x="484" 
d="M311 351q0 85 -22.5 121.5t-84.5 36.5q-39 0 -62 -14t-21 -33q1 -10 10.5 -18.5t20.5 -14t20 -17.5t9 -30q0 -22 -15.5 -38t-36.5 -16q-17 0 -31 10.5t-19 26.5q-22 54 16 102.5t117 48.5q86 0 138.5 -45.5t52.5 -129.5v-273q0 -30 11.5 -49t44.5 -16v-3q-24 -16 -60 -16
q-30 0 -50 13t-31 13q-6 0 -39.5 -12.5t-71.5 -12.5q-78 0 -130 41t-52 114q0 65 41.5 107.5t91.5 42.5q38 0 61 -18v-3q-53 9 -76 -30.5t-23 -98.5q0 -24 4.5 -46.5t15 -47t33 -39.5t53.5 -15q21 0 38.5 7.5t34 19t20.5 13.5q-8 19 -8 45v274z" />
    <glyph glyph-name="b.ss01" 
d="M167 177q0 -94 36.5 -140t89.5 -46q58 0 89.5 75.5t31.5 183.5q0 111 -30 185t-93 74q-51 0 -87.5 -40.5t-36.5 -116.5v-175zM75 0v595q0 85 44.5 124.5t96.5 39.5q49 0 49 -59q0 -26 -15.5 -55.5t-33.5 -54t-33.5 -63t-15.5 -78.5v-3q44 70 134 70q83 0 145.5 -78.5
t62.5 -187.5t-62.5 -187.5t-145.5 -78.5q-46 0 -90.5 27t-64.5 27q-8 0 -15.5 -1.5t-14 -4.5t-11 -5.5t-9.5 -7.5l-7 -7l-7 -7l-4 -5h-3zM167 509q11 38 50.5 99t39.5 92q0 26 -11 39t-26 13q-53 0 -53 -104v-139z" />
    <glyph glyph-name="d.ss01" 
d="M367 352q0 76 -36.5 116.5t-87.5 40.5q-63 0 -93 -74t-30 -185q0 -108 31.5 -183.5t89.5 -75.5q53 0 89.5 46t36.5 140v175zM25 250q0 109 62.5 187.5t145.5 78.5q90 0 134 -70v3q0 40 -15.5 78.5t-33.5 63t-33.5 54t-15.5 55.5q0 59 49 59q52 0 96.5 -39.5t44.5 -124.5
v-595h-3q-1 1 -4 4.5t-5 5.5l-6 6t-7.5 6.5t-9 6t-10.5 5t-12 3t-14 1.5q-20 0 -64.5 -27t-90.5 -27q-83 0 -145.5 78.5t-62.5 187.5zM277 700q0 -31 39.5 -92t50.5 -99v139q0 104 -53 104q-15 0 -26 -13t-11 -39z" />
    <glyph glyph-name="e.ss01" horiz-adv-x="478" 
d="M25 250q0 112 66.5 189t168.5 77q84 0 141 -54t57 -118q0 -40 -25.5 -61t-72.5 -31q38 -37 47 -84.5t-8 -87.5t-58 -68t-95 -28q-93 0 -157 77.5t-64 188.5zM120 284q0 -51 9 -93q8 22 35 34.5t59.5 20t64.5 18.5t53.5 38.5t21.5 70.5q0 52 -28 94t-75 42q-49 0 -82 -36
t-45.5 -84t-12.5 -105zM133 174q19 -74 60 -116.5t89 -42.5q56 0 90.5 39t30 95.5t-50.5 101.5q-22 -4 -57.5 -8t-60 -7t-49.5 -9.5t-38 -19.5t-14 -33z" />
    <glyph glyph-name="f.ss01" horiz-adv-x="422" 
d="M45 500h50v52q0 45 17 79t43 51.5t51.5 25.5t48.5 8q30 0 53.5 -13t23.5 -37q0 -19 -15 -33t-36 -23.5t-42.5 -21.5t-36.5 -33t-15 -51v-4h90v-7h-90v-413q0 -32 15.5 -53.5t39.5 -23.5v-3h-202v3q24 2 39.5 23.5t15.5 53.5v413h-50v7zM187 545q10 23 34 40.5t46 26
t39.5 22.5t17.5 32q0 22 -22.5 32.5t-42.5 10.5q-28 0 -50 -25.5t-22 -78.5v-60z" />
    <glyph glyph-name="g.ss01" 
d="M261 71q-51 0 -109 30q-33 16 -60 0t-27 -46q0 -27 14.5 -41.5t45.5 -17t61.5 -1t82.5 5.5t89 4q69 0 109 -32t40 -94q0 -67 -53 -116t-137 -49q-45 0 -85.5 16t-66.5 36t-64.5 36.5t-79 17t-109.5 -20.5q-423 -150 -548 -45q-36 31 -50 75.5t-0.5 82t48.5 49.5
q34 10 56 -12q15 -15 15 -37t-16 -38q-17 -17 -42 -14.5t-37 -4.5q-16 -12 -9 -39.5t33 -50.5q27 -24 60 -31t80.5 5t88.5 28t116.5 46.5t133.5 50.5q66 23 120.5 23t89.5 -16.5t69 -41.5t59.5 -49t62 -41.5t75.5 -17.5q55 0 98 33.5t43 85.5q0 24 -11 40t-26.5 23.5t-43 10
t-49 1.5t-56.5 -2.5t-55 -1.5q-95 0 -143.5 30.5t-48.5 87.5q0 45 35 68t74 16q-41 31 -65.5 78.5t-24.5 101.5q0 93 63.5 158t153.5 65q72 0 129 -44q-8 39 16 78t65 39q17 0 30 -13t13 -31q0 -19 -13 -32t-30 -13q-10 0 -18 4q-3 1 -17 9.5t-22 8.5q-13 0 -17.5 -18
t2.5 -40q78 -67 78 -171q0 -92 -63.5 -157t-152.5 -65zM139 293q0 -90 32 -152.5t90 -62.5t89.5 62.5t31.5 152.5q0 91 -31.5 153.5t-89.5 62.5t-90 -63t-32 -153z" />
    <glyph glyph-name="h.ss01" horiz-adv-x="606" 
d="M40 3q24 2 39.5 23.5t15.5 53.5v515q0 85 44.5 124.5t96.5 39.5q49 0 49 -59q0 -26 -15.5 -55.5t-33.5 -54t-33.5 -63t-15.5 -78.5q51 67 146 67q83 0 135.5 -43t52.5 -126v-267q0 -32 15.5 -53.5t39.5 -23.5v-3h-202v3q24 2 39.5 23.5t15.5 53.5v298q0 131 -100 131
q-59 0 -100.5 -39.5t-41.5 -112.5v-277q0 -32 15.5 -53.5t39.5 -23.5v-3h-202v3zM187 509q11 38 50.5 99t39.5 92q0 26 -11 39t-26 13q-53 0 -53 -104v-139z" />
    <glyph glyph-name="j.ss01" horiz-adv-x="356" 
d="M189 428q0 33 -35 33v3l127 36v-566q0 -45 -17 -79t-43 -51.5t-51.5 -25.5t-48.5 -8q-30 0 -53.5 13t-23.5 37q0 19 15 33t36 23.5t42.5 21.5t36.5 33t15 51v446zM52 -180q0 -22 22.5 -32.5t42.5 -10.5q28 0 50 25.5t22 78.5v60q-10 -23 -34 -40.5t-46 -26t-39.5 -22.5
t-17.5 -32zM173 608q0 25 18.5 43t43.5 18t43 -18t18 -43q0 -26 -18 -44.5t-43 -18.5q-26 0 -44 18.5t-18 44.5z" />
    <glyph glyph-name="k.ss01" horiz-adv-x="532" 
d="M95 595q0 85 44.5 124.5t96.5 39.5q49 0 49 -59q0 -26 -15.5 -55.5t-33.5 -54t-33.5 -63t-15.5 -78.5v-196q19 18 79 56t77 65q11 16 20 47q12 37 8 55.5t-27 20.5v3h118v-3q-24 -3 -51 -20.5t-38 -45.5q-19 -50 -24 -59q-19 -31 -93 -77q73 -1 109.5 -40t51.5 -105
q5 -22 7 -30t9.5 -33t15 -37t19 -27.5t26.5 -20t33 -0.5v-2q-23 -16 -56 -16q-53 0 -87 34.5t-54 115.5q-17 71 -37.5 109t-54.5 41q-30 -19 -51 -40v-169q0 -30 16 -50t39 -22v-3h-202v3q24 2 39.5 23.5t15.5 53.5v515zM187 509q11 38 50.5 99t39.5 92q0 26 -11 39t-26 13
q-53 0 -53 -104v-139z" />
    <glyph glyph-name="l.ss01" horiz-adv-x="282" 
d="M187 509q11 38 50.5 99t39.5 92q0 26 -11 39t-26 13q-53 0 -53 -104v-139zM40 0v3q24 2 39.5 23.5t15.5 53.5v515q0 85 44.5 124.5t96.5 39.5q49 0 49 -59q0 -26 -15.5 -55.5t-33.5 -54t-33.5 -63t-15.5 -78.5v-369q0 -32 15.5 -53.5t39.5 -23.5v-3h-202z" />
    <glyph glyph-name="v.ss01" horiz-adv-x="536" 
d="M199 379l120 -268l123 309q12 31 5.5 53t-28.5 24v3h112v-3q-23 -2 -46 -24t-36 -53l-167 -420h-7l-172 383q-85 190 -159 272t-184 82q-47 0 -96 -15t-49 -37q0 -12 21.5 -28.5t21.5 -40.5q0 -22 -15.5 -38t-37.5 -16q-31 0 -47 31q-28 56 30 103.5t181 47.5
q134 0 244.5 -98.5t185.5 -266.5z" />
    <glyph glyph-name="w.ss01" horiz-adv-x="832" 
d="M505 382l110 -271l123 309q12 31 5.5 53t-28.5 24v3h112v-3q-23 -2 -46 -24t-36 -53l-167 -420h-7l-155 376l-134 -376h-7l-189 420q-33 72 -81 77v3h194v-3q-30 -3 -33 -23.5t14 -53.5l136 -303l96 269q-77 186 -154 268.5t-188 82.5q-47 0 -96 -15t-49 -37
q0 -12 21.5 -28.5t21.5 -40.5q0 -22 -15.5 -38t-37.5 -16q-31 0 -47 31q-28 56 30 103.5t181 47.5q135 0 246 -97.5t180 -264.5z" />
    <glyph glyph-name="y.ss01" horiz-adv-x="556" 
d="M200 379l131 -291l131 332q12 30 5.5 52.5t-28.5 24.5v3h113v-3q-22 -2 -46 -24.5t-36 -52.5l-246 -621q-34 -85 -95 -85q-40 0 -63.5 42.5t-10.5 79.5q5 17 19 28t31 11q22 0 37.5 -16t15.5 -39q0 -29 -32 -46q-6 -3 -16.5 -6.5t-15.5 -6.5t-5 -7q0 -11 10.5 -22
t29.5 -11q57 0 87 78l80 201h-20l-192 427q-74 163 -146.5 236.5t-176.5 73.5q-47 0 -96 -15t-49 -37q0 -12 21.5 -28.5t21.5 -40.5q0 -22 -15.5 -38t-37.5 -16q-31 0 -47 31q-28 56 30 103.5t181 47.5q134 0 244.5 -98.5t185.5 -266.5z" />
    <glyph glyph-name="a.ss02" horiz-adv-x="484" 
d="M311 351q0 86 -16.5 122t-64.5 36q-34 0 -62 -19t-28 -58q0 -37 22.5 -76t49 -66.5t49 -62.5t22.5 -65q0 -46 -29.5 -66.5t-58.5 -20.5q-53 0 -73 30q6 -47 30.5 -80t73.5 -33q21 0 38.5 7.5t34 19t20.5 13.5q-8 19 -8 45v274zM25 140q0 65 41.5 107.5t91.5 42.5
q34 0 54 -13q-25 30 -38.5 48t-27 48.5t-13.5 58.5q0 42 30 63t67 21q74 0 123.5 -46t49.5 -129v-273q0 -30 11.5 -49t44.5 -16v-3q-24 -16 -60 -16q-30 0 -50 13t-31 13q-6 0 -39.5 -12.5t-71.5 -12.5q-78 0 -130 41t-52 114zM120 140q0 -20 10 -33.5t26 -18t23.5 -5.5
t15.5 -1q27 0 54 18.5t27 61.5q0 39 -57 107q-53 9 -76 -30.5t-23 -98.5z" />
    <glyph glyph-name="b.ss02" 
d="M167 177q0 -94 36.5 -140t89.5 -46q58 0 89.5 75.5t31.5 183.5q0 111 -30 185t-93 74q-51 0 -87.5 -40.5t-36.5 -116.5v-175zM75 0v291v61t0.5 53t2.5 50.5t4.5 43t7 42t11.5 34.5t16 33.5t21 27.5t27.5 27t34.5 22q51 29 105.5 31.5t89 -20t33.5 -59.5q-2 -34 -29 -47
q-19 -9 -39.5 -1.5t-30.5 26.5q-10 22 3 45.5t7 33.5q-13 16 -48.5 13.5t-58.5 -16.5q-41 -24 -53 -76t-12 -169q42 70 134 70q83 0 145.5 -78.5t62.5 -187.5t-62.5 -187.5t-145.5 -78.5q-46 0 -90.5 27t-64.5 27q-8 0 -15.5 -1.5t-14 -4.5t-11 -5.5t-9.5 -7.5l-7 -7l-7 -7
l-4 -5h-3z" />
    <glyph glyph-name="d.ss02" 
d="M367 352q0 76 -36.5 116.5t-87.5 40.5q-63 0 -93 -74t-30 -185q0 -108 31.5 -183.5t89.5 -75.5q53 0 89.5 46t36.5 140v175zM25 250q0 109 62.5 187.5t145.5 78.5q94 0 136 -73q6 93 32 149t91 93q51 29 105.5 31.5t89 -20t33.5 -59.5q-2 -34 -29 -47q-19 -9 -39.5 -1.5
t-30.5 26.5q-10 22 3 45.5t7 33.5q-13 16 -48.5 13.5t-58.5 -16.5q-46 -27 -56 -88.5t-9 -235.5v-76v-291h-3q-1 1 -4 4.5t-5 5.5l-6 6t-7.5 6.5t-9 6t-10.5 5t-12 3t-14 1.5q-20 0 -64.5 -27t-90.5 -27q-83 0 -145.5 78.5t-62.5 187.5z" />
    <glyph glyph-name="g.ss02" 
d="M261 71q-49 0 -109 30q-33 16 -60 0t-27 -46q0 -27 14.5 -41.5t45.5 -17t61.5 -1t82.5 5.5t89 4q69 0 109 -32t40 -94q0 -67 -53 -116t-137 -49q-45 0 -85.5 16t-66.5 36t-64.5 36.5t-79 17t-109.5 -20.5q-423 -150 -548 -45q-36 31 -50 75.5t-0.5 82t48.5 49.5
q34 10 56 -12q15 -15 15 -37t-16 -38q-17 -17 -42 -14.5t-37 -4.5q-16 -12 -9 -39.5t33 -50.5q27 -24 60 -31t80.5 5t88.5 28t116.5 46.5t133.5 50.5q66 23 120.5 23t89.5 -16.5t69 -41.5t59.5 -49t62 -41.5t75.5 -17.5q55 0 98 33.5t43 85.5q0 24 -11 40t-26.5 23.5t-43 10
t-49 1.5t-56.5 -2.5t-55 -1.5q-95 0 -143.5 30.5t-48.5 87.5q0 45 35 68t74 16q-41 31 -65.5 78.5t-24.5 101.5q0 93 63.5 158t153.5 65q105 0 171 -87q7 50 36.5 94.5t71 72.5t90.5 47.5t93 18t79 -16.5q25 -13 25 -37q0 -16 -11 -27t-26 -11q-14 0 -27 11q-3 3 -10 9.5
t-14 12t-15 9.5q-23 11 -54 12t-63 -7.5t-61.5 -29t-51 -49t-31 -71t-1.5 -92.5q15 -39 15 -82q0 -92 -63.5 -157t-152.5 -65zM139 293q0 -90 32 -152.5t90 -62.5t89.5 62.5t31.5 152.5q0 91 -31.5 153.5t-89.5 62.5t-90 -63t-32 -153z" />
    <glyph glyph-name="h.ss02" horiz-adv-x="606" 
d="M374 3q24 2 39.5 23.5t15.5 53.5v298q0 131 -100 131q-59 0 -100.5 -39.5t-41.5 -112.5v-277q0 -32 15.5 -53.5t39.5 -23.5v-3h-202v3q24 2 39.5 23.5t15.5 53.5v211v61t0.5 53t2.5 50.5t4.5 43t7 42t11.5 34.5t16 33.5t21 27.5t27.5 27t34.5 22q51 29 105.5 31.5t89 -20
t33.5 -59.5q-2 -34 -29 -47q-19 -9 -39.5 -1.5t-30.5 26.5q-10 22 3 45.5t7 33.5q-13 16 -48.5 13.5t-58.5 -16.5q-41 -24 -53 -75t-12 -167q23 31 62 49t84 18q83 0 135.5 -43t52.5 -126v-267q0 -32 15.5 -53.5t39.5 -23.5v-3h-202v3z" />
    <glyph glyph-name="k.ss02" horiz-adv-x="532" 
d="M95 280v61t0.5 54t2.5 52t4.5 44.5t7.5 43.5t11.5 36t15.5 35t21 28.5t27.5 28t34.5 22.5q51 29 105.5 31.5t89 -20t33.5 -59.5q-2 -34 -29 -47q-19 -9 -39.5 -1.5t-30.5 26.5q-10 22 3 45.5t7 33.5q-13 16 -48.5 13.5t-58.5 -16.5q-46 -27 -56 -92.5t-9 -242.5v-76v-27
q19 18 79 56t77 65q11 16 20 47q12 37 8 55.5t-27 20.5v3h118v-3q-24 -3 -51 -20.5t-38 -45.5q-19 -50 -24 -59q-19 -31 -93 -77q73 -1 109.5 -40t51.5 -105q5 -22 7 -30t9.5 -33t15 -37t19 -27.5t26.5 -20t33 -0.5v-2q-23 -16 -56 -16q-53 0 -87 34.5t-54 115.5
q-17 71 -37.5 109t-54.5 41q-30 -19 -51 -40v-169q0 -30 16 -50t39 -22v-3h-202v3q24 2 39.5 23.5t15.5 53.5v200z" />
    <glyph glyph-name="l.ss02" horiz-adv-x="282" 
d="M40 3q24 2 39.5 23.5t15.5 53.5v211v61t0.5 53t2.5 50.5t4.5 43t7 42t11.5 34.5t16 33.5t21 27.5t27.5 27t34.5 22q51 29 105.5 31.5t89 -20t33.5 -59.5q-2 -34 -29 -47q-19 -9 -39.5 -1.5t-30.5 26.5q-10 22 3 45.5t7 33.5q-13 16 -48.5 13.5t-58.5 -16.5
q-46 -27 -56 -88.5t-9 -235.5v-76v-211q0 -32 15.5 -53.5t39.5 -23.5v-3h-202v3z" />
    <glyph glyph-name="y.ss02" horiz-adv-x="556" 
d="M5 497v3h194v-3q-23 -2 -28.5 -23t9.5 -54l150 -332l131 332q12 30 5.5 52.5t-28.5 24.5v3h113v-3q-22 -2 -46 -24.5t-36 -52.5l-241 -607q-21 -54 -43.5 -76.5t-50.5 -22.5q-50 0 -45 57q7 65 70 140q53 64 116 89l-189 420q-33 72 -81 77zM134 -279q50 0 86 92l74 187
q-85 -28 -150 -120q-53 -76 -47 -127q4 -32 37 -32z" />
    <glyph glyph-name="b.ss03" 
d="M167 177q0 -94 36.5 -140t89.5 -46q58 0 89.5 75.5t31.5 183.5q0 111 -30 185t-93 74q-51 0 -87.5 -40.5t-36.5 -116.5v-175zM-186 637q-1 37 33.5 59.5t89 20t105.5 -31.5q65 -37 91 -93t32 -149q42 73 136 73q83 0 145.5 -78.5t62.5 -187.5t-62.5 -187.5t-145.5 -78.5
q-46 0 -90.5 27t-64.5 27q-8 0 -15.5 -1.5t-14 -4.5t-11 -5.5t-9.5 -7.5l-7 -7l-7 -7l-4 -5h-3v291q0 230 -4 269q-8 90 -48 122q-6 5 -13 9q-23 14 -58.5 16.5t-48.5 -13.5q-6 -10 7 -33.5t3 -45.5q-10 -19 -30.5 -26.5t-39.5 1.5q-27 13 -29 47z" />
    <glyph glyph-name="g.ss03" 
d="M261 71q-45 0 -109 30q-32 15 -59.5 -0.5t-27.5 -45.5q0 -27 14.5 -41.5t45.5 -17t61.5 -1t82.5 5.5t89 4q69 0 109 -32t40 -94q0 -68 -56 -116.5t-151 -48.5q-97 0 -189.5 28t-210.5 99q-51 31 -105 49.5t-113.5 15.5t-99.5 -36q-34 -30 -18 -46q4 -4 29.5 -3.5
t43.5 -17.5q16 -16 16 -38t-15 -37q-23 -23 -56 -12q-48 16 -50 66.5t52 98.5q147 123 352 31q58 -26 114.5 -63.5t89 -63.5t77.5 -45t95 -19q55 0 100.5 34t45.5 85q0 24 -11 40t-26.5 23.5t-43 10t-49 1.5t-56.5 -2.5t-55 -1.5q-95 0 -143.5 30.5t-48.5 87.5q0 45 35 68
t74 16q-41 31 -65.5 78.5t-24.5 101.5q0 93 63.5 158t153.5 65q105 0 171 -87q7 49 36.5 93.5t71 73t90.5 47.5t93 18t79 -16q25 -13 25 -37q0 -16 -11 -27t-26 -11q-14 0 -27 11q-3 3 -10 9.5t-14 12t-15 9.5q-23 11 -54 12t-63 -7.5t-61.5 -29t-51 -49t-31 -71t-1.5 -92.5
q15 -39 15 -82q0 -92 -63.5 -157t-152.5 -65zM139 293q0 -90 32 -152.5t90 -62.5t89.5 62.5t31.5 152.5q0 91 -31.5 153.5t-89.5 62.5t-90 -63t-32 -153z" />
    <glyph glyph-name="h.ss03" horiz-adv-x="606" 
d="M374 3q24 2 39.5 23.5t15.5 53.5v298q0 131 -100 131q-59 0 -100.5 -39.5t-41.5 -112.5v-277q0 -32 15.5 -53.5t39.5 -23.5v-3h-202v3q24 2 39.5 23.5t15.5 53.5v211v76q1 188 -10 239q-13 60 -55 85q-23 14 -58.5 16.5t-48.5 -13.5q-6 -10 7 -33.5t3 -45.5
q-10 -19 -30.5 -26.5t-39.5 1.5q-27 13 -29 47q-1 37 33.5 59.5t89 20t105.5 -31.5q65 -37 91 -92t32 -147q49 70 148 70q83 0 135.5 -43t52.5 -126v-267q0 -32 15.5 -53.5t39.5 -23.5v-3h-202v3z" />
    <glyph glyph-name="k.ss03" horiz-adv-x="532" 
d="M187 253q19 18 79 56t77 65q11 16 20 47q12 37 8 55.5t-27 20.5v3h118v-3q-24 -3 -51 -20.5t-38 -45.5q-19 -50 -24 -59q-19 -31 -93 -77q73 -1 109.5 -40t51.5 -105q5 -22 7 -30t9.5 -33t15 -37t19 -27.5t26.5 -20t33 -0.5v-2q-23 -16 -56 -16q-53 0 -87 34.5t-54 115.5
q-17 71 -37.5 109t-54.5 41q-30 -19 -51 -40v-169q0 -30 16 -50t39 -22v-3h-202v3q24 2 39.5 23.5t15.5 53.5v203q0 232 -4 273q-8 95 -50 128q-5 4 -11 7q-23 14 -58.5 16.5t-48.5 -13.5q-6 -10 7 -33.5t3 -45.5q-10 -19 -30.5 -26.5t-39.5 1.5q-27 13 -29 47
q-1 37 33.5 59.5t89 20t105.5 -31.5q19 -11 34.5 -22.5t27.5 -27.5l21 -28t15.5 -35t11.5 -36t7.5 -43t4.5 -44t2.5 -51.5t0.5 -53.5v-61v-30z" />
    </font>
</defs>
</svg>
